[ Сегодня на трекере фрилич! Идет свободное скачивание без начисления Download ]

Павел Кашин - Адмирабль (2014) [FLAC|Lossless]<Авторская песня>

 

Создавать темы 15-Фев-2014 11:15

-Павел Кашин - Адмирабль (2014)- Лейбл: Навигатор Рекордс
Каталог: NR 4413 CDp
Год: 2014
Жанр: Авторская песня
Продолжительность: 00:38:26
Кодек: FLAC (image+ .cue)
Битрейт: Lossless
Треклист:
01. Радуга
02. Ангел на свече
03. Москва 12
04. Адмирабль
05. Пасмурное лето
06. Морская львица
07. Танец на Волге
08. Арена
09. Песня о тебе
10. Мечта
11. Побег

Отчёт ЕАС&#58;

Exact Audio Copy V0.99 prebeta 5 from 4. May 2009
EAC extraction logfile from 13. February 2014, 22:31
Павел Кашин / Адмирабль
Used drive  : PLEXTOR DVDR   PX-760A   Adapter: 4  ID: 2
Read mode               : Secure
Utilize accurate stream : Yes
Defeat audio cache      : Yes
Make use of C2 pointers : No
Read offset correction                      : 30
Overread into Lead-In and Lead-Out          : Yes
Fill up missing offset samples with silence : Yes
Delete leading and trailing silent blocks   : No
Null samples used in CRC calculations       : Yes
Used interface                              : Native Win32 interface for Win NT & 2000
Used output format : Internal WAV Routines
Sample format      : 44.100 Hz; 16 Bit; Stereo
TOC of the extracted CD
     Track |   Start  |  Length  | Start sector | End sector
    ---------------------------------------------------------
        1  |  0:00.00 |  3:46.11 |         0    |    16960
        2  |  3:46.11 |  3:50.38 |     16961    |    34248
        3  |  7:36.49 |  4:17.08 |     34249    |    53531
        4  | 11:53.57 |  2:44.43 |     53532    |    65874
        5  | 14:38.25 |  3:06.29 |     65875    |    79853
        6  | 17:44.54 |  3:04.02 |     79854    |    93655
        7  | 20:48.56 |  3:42.45 |     93656    |   110350
        8  | 24:31.26 |  3:47.67 |    110351    |   127442
        9  | 28:19.18 |  3:02.14 |    127443    |   141106
       10  | 31:21.32 |  3:37.47 |    141107    |   157428
       11  | 34:59.04 |  3:26.47 |    157429    |   172925
Range status and errors
Selected range
     Filename M:\FLAC (bruk67)\MP3\Павел Кашин (FLAC)\2014 Адмирабль\Павел Кашин - Адмирабль.wav
     Peak level 100.0 %
     Range quality 100.0 %
     Test CRC D7577679
     Copy CRC D7577679
     Copy OK
No errors occurred
AccurateRip summary
Track  1  not present in database
Track  2  not present in database
Track  3  not present in database
Track  4  not present in database
Track  5  not present in database
Track  6  not present in database
Track  7  not present in database
Track  8  not present in database
Track  9  not present in database
Track 10  not present in database
Track 11  not present in database
None of the tracks are present in the AccurateRip database
End of status report

Отчёт auCDtect Task manager&#58;

-----------------------
DON'T MODIFY THIS FILE
-----------------------
PERFORMER: auCDtect Task Manager, ver. 1.5.1RC4 build 1.5.1.5
Copyright (c) 2008-2010 y-soft. All rights reserved
http://y-soft.org
ANALYZER: auCDtect: CD records authenticity detector, version 0.8.2
Copyright (c) 2004 Oleg Berngardt. All rights reserved.
Copyright (c) 2004 Alexander Djourik. All rights reserved.
FILE: Павел Кашин - Адмирабль.flac
  Size: 282484599 Hash: 8D4BB12E7E4030D4DC1EAE1A9D8A247A Accuracy: -m0
  Conclusion: CDDA 100%
  Signature: 90B374A9B2A998ABAD24E9C8047A0C7584069924

Содержимое индексной карты&#58;

REM GENRE "Acoustic Rock"
REM DATE 2014
REM DISCID 8109010B
REM COMMENT "ExactAudioCopy v0.99pb5"
PERFORMER "Павел Кашин"
TITLE "Адмирабль"
FILE "Павел Кашин - Адмирабль.flac" WAVE
  TRACK 01 AUDIO
    TITLE "Радуга"
    PERFORMER "Павел Кашин"
    INDEX 01 00:00:00
  TRACK 02 AUDIO
    TITLE "Ангел на свече"
    PERFORMER "Павел Кашин"
    INDEX 01 03:46:11
  TRACK 03 AUDIO
    TITLE "Москва 12"
    PERFORMER "Павел Кашин"
    INDEX 01 07:36:49
  TRACK 04 AUDIO
    TITLE "Адмирабль"
    PERFORMER "Павел Кашин"
    INDEX 01 11:53:57
  TRACK 05 AUDIO
    TITLE "Пасмурное лето"
    PERFORMER "Павел Кашин"
    INDEX 01 14:38:25
  TRACK 06 AUDIO
    TITLE "Морская львица"
    PERFORMER "Павел Кашин"
    INDEX 01 17:44:54
  TRACK 07 AUDIO
    TITLE "Танец на Волге"
    PERFORMER "Павел Кашин"
    INDEX 01 20:48:56
  TRACK 08 AUDIO
    TITLE "Арена"
    PERFORMER "Павел Кашин"
    INDEX 01 24:31:26
  TRACK 09 AUDIO
    TITLE "Песня о тебе"
    PERFORMER "Павел Кашин"
    INDEX 01 28:19:18
  TRACK 10 AUDIO
    TITLE "Мечта"
    PERFORMER "Павел Кашин"
    INDEX 01 31:21:32
  TRACK 11 AUDIO
    TITLE "Побег"
    PERFORMER "Павел Кашин"
    INDEX 01 34:59:04
-
Яндекс.Метрика
Рейтинг@Mail.ru