Незнакомец с моим лицом / Stranger with My Face (2009) DVDRip

 

Создавать темы 15-Фев-2014 10:59

-Незнакомец с моим лицом / Stranger with My Face (2009) DVDRip- Год выпуска: 2009
Производство: Канада
Жанр: Триллер, Драма, Детектив, Мистика
Описание фильма:
Юная Лори, после потери отца, на новом месте жительства в загородном доме начинает видеть и слышать странные вещи. При этом ее саму постоянно видят в тех местах, где она точно быть не могла. Что это? Раздвоение личности? Помешательство? Загадка кроется в прошлом девушки...
Режиссер: Джефф Ренфро
Актеры: Кэтрин Хикс, Алекс Джонсон, Эндрю Френсис, Эмили Хирст, Грэйс Шерман, Луиза Д’Оливера, Ни До
Продолжительность: 01:28:41
Качество видео: DVDRip
Перевод: Многоголосый закадровый, любительский

Дата мировой премьеры: 29 августа 2009
Видеокодек: Xvid
Битрейт видео: ~963 kb/s
Размер кадра: 624х352
Аудиокодек: MP3 2.0
Битрейт аудио: 128 kb/s
Сэмпл: Ссылка

MediaInfo:

Общее
Полное имя : C:Торренты\Незнакомец с моим лицом.2009.DVDRip.avi
Формат : AVI
Формат/Информация : Audio Video Interleave
Размер файла : 698 Мбайт
Продолжительность : 1 ч. 28 м.
Общий поток : 1100 Кбит/сек
Программа кодирования : VirtualDubMod 1.5.10.2 (build 2540/release)
Библиотека кодирования : VirtualDubMod build 2540/release
Видео
Идентификатор : 0
Формат : MPEG-4 Visual
Профиль формата : Advanced [email protected]
Параметр BVOP формата : 2
Параметр QPel формата : Нет
Параметр GMC формата : Без точки перехода
Параметр матрицы формата : Default (H.263)
Режим смешивания : Сжатый битовый поток
Идентификатор кодека : XVID
Идентификатор кодека/Подсказка : XviD
Продолжительность : 1 ч. 28 м.
Битрейт : 963 Кбит/сек
Ширина : 624 пикселя
Высота : 352 пикселя
Соотношение сторон : 16:9
Частота кадров : 23,976 кадра/сек
Цветовое пространство : YUV
Субдискретизация насыщенности : 4:2:0
Битовая глубина : 8 бит
Тип развёртки : Прогрессивная
Метод сжатия : С потерями
Бит/(Пиксели*Кадры) : 0.183
Размер потока : 611 Мбайт (88%)
Библиотека кодирования : XviD 1.2.1 (UTC 2008-12-04)
Аудио
Идентификатор : 1
Формат : MPEG Audio
Версия формата : Version 1
Профиль формата : Layer 3
Режим : Joint stereo
Расширение режима : MS Stereo
Идентификатор кодека : 55
Идентификатор кодека/Подсказка : MP3
Продолжительность : 1 ч. 28 м.
Вид битрейта : Постоянный
Битрейт : 128 Кбит/сек
Каналы : 2 канала
Частота : 48,0 КГц
Метод сжатия : С потерями
Размер потока : 81,2 Мбайт (12%)
Выравнивание : Соединение по промежуткам
Продолжительность промежутка : 42 мс. (1,00 видеокадр)
Время предзагрузки промежутка : 504 мс.
Скриншоты:
Время раздачи: с 10.00 до 22.00Незабываем благодарить релизёров
Яндекс.Метрика
Рейтинг@Mail.ru