Скандальный дневник / Notes on a Scandal (2006) BDRip [H.264]

 

Создавать темы 15-Фев-2014 10:55

-Скандальный дневник / Notes on a Scandal (2006) BDRip [H.264]
Год выпуска: 2006
Жанр: Триллер, Драма
Производство: Великобритания
Описание фильма: Преподавательница гуманитарных наук Шеба Харт заводит роман со своим пятнадцатилетним учеником. Тайная связь грозится стать достоянием общественности, когда об этом узнает другая преподавательница по имени Барбара…
Режиссер: Ричард Эйр
Актеры: Джуди Денч, Кейт Бланшетт, Билл Найи, Эндрю Симпсон, Том Джорджсон, Майкл Мэлоуни, Джоэнна Скэнлэн, Шон Паркес, Эмма Кеннеди, Сирита Кумар...
Продолжительность: 01:31:47
Качество видео: BDRip [H.264]
Перевод: Многоголосый закадровый (профессиональный)

Дата мировой премьеры: 25 декабря 2006
Дата российской премьеры: 8 марта 2007, «Гемини»
Видеокодек: MPEG-4 AVC/H.264
Битрейт видео: ~1816 kbps
Размер кадра: 960x528
Аудиокодек: AC3 5.1
Битрейт аудио: 448.00 kbps
&

MediaInfo

Общее
Уникальный идентификатор : 252153637607638061440200511608649702448 (0xBDB3062D1640351BA5C78E693CE85C30)
Полное имя : D:\Torrent\Notes on a Scandal.2006.BDRip-AVC.mkv
Формат : Matroska
Версия формата : Version 4 / Version 2
Размер файла : 1,45 Гбайт
Продолжительность : 1 ч. 31 м.
Общий поток : 2264 Кбит/сек
Название фильма : Скандальный дневник / Notes on a Scandal (2006) BDRip-AVC rip by Rulya74
Дата кодирования : UTC 2014-02-13 05:12:01
Программа кодирования : mkvmerge v6.6.0 ('The Edge Of The In Between') built on Dec 1 2013 17:55:00
Библиотека кодирования : libebml v1.3.0 + libmatroska v1.4.1
Видео
Идентификатор : 1
Формат : AVC
Формат/Информация : Advanced Video Codec
Профиль формата : [url=mailto:[email protected]][email protected][/url]
Параметр CABAC формата : Да
Параметр ReFrames формата : 7 кадров
Идентификатор кодека : V_MPEG4/ISO/AVC
Продолжительность : 1 ч. 31 м.
Битрейт : 1816 Кбит/сек
Ширина : 960 пикселей
Высота : 528 пикселей
Соотношение сторон : 16:9
Режим частоты кадров : Постоянный
Частота кадров : 23,976 кадра/сек
Цветовое пространство : YUV
Субдискретизация насыщенности : 4:2:0
Битовая глубина : 8 бит
Тип развёртки : Прогрессивная
Бит/(Пиксели*Кадры) : 0.149
Размер потока : 1,14 Гбайт (78%)
Библиотека кодирования : x264 core 142 r2389 956c8d8
Настройки программы : cabac=1 / ref=7 / deblock=1:-1:-1 / analyse=0x3:0x102 / me=umh / subme=11 / psy=1 / psy_rd=1.00:0.00 / mixed_ref=1 / me_range=48 / chroma_me=1 / trellis=2 / 8x8dct=1 / cqm=0 / deadzone=21,11 / fast_pskip=0 / chroma_qp_offset=-2 / threads=4 / lookahead_threads=1 / sliced_threads=0 / nr=0 / decimate=1 / interlaced=0 / bluray_compat=0 / constrained_intra=0 / bframes=11 / b_pyramid=2 / b_adapt=1 / b_bias=0 / direct=3 / weightb=1 / open_gop=0 / weightp=2 / keyint=240 / keyint_min=23 / scenecut=40 / intra_refresh=0 / rc_lookahead=40 / rc=2pass / mbtree=1 / bitrate=1816 / ratetol=1.0 / qcomp=0.60 / qpmin=0 / qpmax=69 / qpstep=4 / cplxblur=20.0 / qblur=0.5 / vbv_maxrate=62500 / vbv_bufsize=78125 / nal_hrd=none / filler=0 / ip_ratio=1.40 / aq=1:1.00
Default : Да
Forced : Нет
Аудио
Идентификатор : 2
Формат : AC-3
Формат/Информация : Audio Coding 3
Расширение режима : CM (complete main)
Параметр Endianness формата : Big
Идентификатор кодека : A_AC3
Продолжительность : 1 ч. 31 м.
Вид битрейта : Постоянный
Битрейт : 448 Кбит/сек
Каналы : 6 каналов
Расположение каналов : Front: L C R, Side: L R, LFE
Частота : 48,0 КГц
Битовая глубина : 16 бит
Метод сжатия : С потерями
Размер потока : 294 Мбайт (20%)
Заголовок : Профессиональный (многоголосый закадровый)
Язык : Russian
Default : Да
Forced : Нет
Скриншоты:
-Время раздачи: с 9:00 до 23:00
Яндекс.Метрика
Рейтинг@Mail.ru