Курс вождения автомобиля "Смотри - и учись" [2008, Вождение автомобиля, DVDRip] Rus

 

Создавать темы 15-Фев-2014 10:32

-Курс вождения автомобиля "Смотри - и учись"-- Страна: Россия
Тематика: Вождение автомобиля
Тип раздаваемого материала: Видеоурок
Продолжительность: 01:13:33
Год выпуска: 2008
Язык: Русский
Описание: Из этого видеокурса вы узнаете, что представляет собой современный автомобиль, как получить первые водитльские навыки, какие упражнения следует освоить на тренировочной площадке, как правильно ездить в городских условиях и на загородных дорогах. Вам не будут страшны дождь, снег, гололед, туман, темное время суток и иные природные катаклизмы: в книге рассказывается не только о том, как управлять машиной в подобных условиях, но и о том, что следует предпринять в случае внезапной внештатной ситуации.
Понятный и доступный стиль изложения, а также большое количество полезных советов и рекомендаций делают материал увлекательным и легким для восприятия. Все ключевые моменты наглядно продемонстрированы и профессионально прокомментированы в видеокурсе.

Содержание видеоурока:

- правильная посадка в автомобиль
- регулировка салонного зеркала заднего вида
- регулировка наружных зеркал
- панель приборов
- работа ног
- использование ручного тормоза
- коробка передач
- запуск автомобиля
- трогание с места
- работа руками на рулевом колесе
- определение положения колёс
- движение задним ходом
- эстакада
- диагональная парковка
- змейка
- остановка
- поворот без остановки
- разворот на перекрёстке
- разворот на узкой дороге
- проезд перекрёстка с круговым движением
- движение на подъём
- использование указателей поворота
- проезд нестандартного перекрёстка
- круговой перекрёсток со сквозным проездом
- выезд со стоянки во дворе
- буксировка автомобиля
- мёртвая зона
- проезд рядом с маршрутным транспортным средством
- курение за рулём
- начало движения на оживлённой дороге
- левый поворот на регулируемом перекрёстке
- проезд по многополосной дороге
- остановка на оживлённой дороге
- разворот на двухуровневой развязке
- особенности ночного движения
- разворот на обозначенном перекрёстке
- выполнение правого поворота
- расположение автомобиля на дороге
- соблюдение дистанции при движении в ночное время
Качество видео: DVDRip
Контейнер: AVI
Видео кодек: H.264
Аудио кодек: MP3
Видео: 640x480 (1.33:1), 25 fps, Intel ITU H.264 ~1628 kbps avg, 0.21 bit/pixel
Аудио: 44.100 kHz, MPEG Layer 3, 2 ch, ~256.00 kbps avg

MediaInfo

Общее
Полное имя : F:\Joker 05\Фильмы\Фильмы 2\Курс вождения автомобиля Смотри и учись 2008 DVDRip.avi
Формат : AVI
Формат/Информация : Audio Video Interleave
Размер файла : 998 Мбайт
Продолжительность : 1 ч. 13 м.
Общий поток : 1897 Кбит/сек
Программа кодирования : Lavf54.63.104
Видео
Идентификатор : 0
Формат : AVC
Формат/Информация : Advanced Video Codec
Профиль формата : [email protected]
Параметр CABAC формата : Да
Параметр ReFrames формата : 1 кадр
Идентификатор кодека : H264
Продолжительность : 1 ч. 13 м.
Битрейт : 1632 Кбит/сек
Ширина : 640 пикселей
Высота : 480 пикселей
Соотношение сторон : 4:3
Режим частоты кадров : Переменный
Частота кадров : 25,000 кадров/сек
Цветовое пространство : YUV
Субдискретизация насыщенности : 4:2:0
Битовая глубина : 8 бит
Тип развёртки : Прогрессивная
Бит/(Пиксели*Кадры) : 0.213
Размер потока : 857 Мбайт (86%)
Библиотека кодирования : x264 core 129
Аудио
Идентификатор : 1
Формат : MPEG Audio
Версия формата : Version 1
Профиль формата : Layer 3
Режим : Joint stereo
Идентификатор кодека : 55
Идентификатор кодека/Подсказка : MP3
Продолжительность : 1 ч. 13 м.
Вид битрейта : Постоянный
Битрейт : 256 Кбит/сек
Каналы : 2 канала
Частота : 44,1 КГц
Метод сжатия : С потерями
Размер потока : 135 Мбайт (13%)
Выравнивание : Соединение по промежуткам
Продолжительность промежутка : 26 мс. (0,65 видеокадр)
Библиотека кодирования : LAME3.99.5

Скриншоты

Яндекс.Метрика
Рейтинг@Mail.ru