Механик (Игорь Копылов) [2012 г., боевик, криминал] (IPTVRip)

 

Создавать темы 15-Фев-2014 10:28

Механик-- Производство: Россия, Триикс Медиа
Режиссер: Игорь Копылов
Жанр: боевик, криминал
Год выпуска: 2012 г.
Продолжительность: 01:26:53
В ролях: Наталья Бурмистрова, Андрей Кузнецов, Сергей Кошонин, Алексей Фокин, Татьяна Колганова, Прохор Дубравин...-Описание: Он как невидимка, его никто не видел в лицо, а те, кто видел — уничтожены. Несколько лет назад он исчез. Ходили слухи, что он погиб, но труп не был обнаружен. Он — один из самых профессиональных киллеров страны, известный под странной кличкой Механик. У правоохранительных органов есть информация о готовящемся покушении, где исполнителем будет якобы Механик…- Сэмпл
Качество видео: IPTVRip
Контейнер: AVI
Видео кодек: XviD
Аудио кодек: MP3
Видео: MPEG4, XviD, 720x384 (1.875), 25.000 fps, 1 885 Kbps (0.273 bit/pixel)
Аудио: русский, MP3, 48.0 KHz, 2 ch, 192 Kbps, CBR
Cубтитры: отсутствуют

Media Info

General
Format : AVI
Format/Info : Audio Video Interleave
File size : 1.27 GiB
Duration : 1h 26mn
Overall bit rate : 2 087 Kbps
Writing application : VirtualDubModRus 1.5.10.2 (build 2540/release)
Video
ID : 0
Format : MPEG-4 Visual
Format profile : Streaming [email protected]
Format settings, BVOP : Yes
Format settings, QPel : No
Format settings, GMC : No warppoints
Format settings, Matrix : Default (H.263)
Codec ID : XVID
Codec ID/Hint : XviD
Duration : 1h 26mn
Bit rate : 1 885 Kbps
Width : 720 pixels
Height : 384 pixels
Display aspect ratio : 1.875
Frame rate : 25.000 fps
Resolution : 24 bits
Colorimetry : 4:2:0
Scan type : Progressive
Bits/(Pixel*Frame) : 0.273
Stream size : 1.14 GiB (90%)
Writing library : XviD 1.2.1 (UTC 2008-12-04)
Audio
ID : 1
Format : MPEG Audio
Format version : Version 1
Format profile : Layer 3
Codec ID : 55
Codec ID/Hint : MP3
Duration : 1h 26mn
Bit rate mode : Constant
Bit rate : 192 Kbps
Channel(s) : 2 channels
Sampling rate : 48.0 KHz
Resolution : 16 bits
Stream size : 119 MiB (9%)
Alignment : Aligned on interleaves
Interleave, duration : 40 ms (1.00 video frame)
Interleave, preload duration : 504 ms
Writing library : LAME3.98r
Encoding settings : -m s -V 4 -q 2 -lowpass 18.6 -b 192
-Скриншоты:
Яндекс.Метрика
Рейтинг@Mail.ru