[ Сегодня на трекере фрилич! Идет свободное скачивание без начисления Download ]

Гиганты речных глубин / Catching the impossible / (Стрим ТВ) [2014 г., Документальный, TVRip] VO

 

Создавать темы 15-Фев-2014 10:15

-Гиганты речных глубин / Catching the impossible-- Производство: Великобритания
Жанр: Документальный
Год выпуска: 2014 г.
Продолжительность: 00:48:16
Перевод: Профессиональный (одноголосый, закадровый)
Оригинальный аудиопоток: английский
Режиссер: Стрим ТВ-Описание: В озерах и реках Англии живут удивительно прекрасные и потрясающие создания, таинственные исполины глубин.
В души рыболовов эти невероятно громадные рыбы вносят смятения.
Следуйте в этих фильмах за нами и получайте божественное наслаждение от открытий и путешествий которые ждут вас в этом еще не полностью исследованном подводном мире, который наполнен жизнью дикой природы.-Качество видео: TVRip
Контейнер: AVI
Видео кодек: XviD
Аудио кодек: MP3
Видео: 704x400 (1.76:1), 25 fps, XviD build 50 ~1498 kbps avg, 0.21 bit/pixel
Аудио: 48 kHz, MPEG Layer 3, 2 ch, ~128.00 kbps avg
Cубтитры: отсутствуют

Media Info

General
Complete name : C:\Users\Mersicc\Videos\Гиганты речных глубин.avi
Format : AVI
Format/Info : Audio Video Interleave
File size : 565 MiB
Duration : 48mn 16s
Overall bit rate : 1 636 Kbps
Writing application : VirtualDubMod 1.5.10.3 | www.virtualdub-fr.org || (build 2550/release)
Writing library : VirtualDubMod build 2550/release
Video
ID : 0
Format : MPEG-4 Visual
Format profile : Advanced [email protected]
Format settings, BVOP : 2
Format settings, QPel : No
Format settings, GMC : No warppoints
Format settings, Matrix : Default (MPEG)
Codec ID : XVID
Codec ID/Hint : XviD
Duration : 48mn 16s
Bit rate : 1 499 Kbps
Width : 704 pixels
Height : 400 pixels
Display aspect ratio : 16:9
Frame rate : 25.000 fps
Color space : YUV
Chroma subsampling : 4:2:0
Bit depth : 8 bits
Scan type : Progressive
Compression mode : Lossy
Bits/(Pixel*Frame) : 0.213
Stream size : 517 MiB (92%)
Writing library : XviD 1.2.1 (UTC 2008-12-04)
Audio
ID : 1
Format : MPEG Audio
Format version : Version 1
Format profile : Layer 3
Codec ID : 55
Codec ID/Hint : MP3
Duration : 48mn 16s
Bit rate mode : Constant
Bit rate : 128 Kbps
Channel count : 2 channels
Sampling rate : 48.0 KHz
Compression mode : Lossy
Stream size : 44.2 MiB (8%)
Alignment : Aligned on interleaves
Interleave, duration : 40 ms (1.00 video frame)
Interleave, preload duration : 504 ms
Writing library : LAME3.99r
Encoding settings : -m s -V 4 -q 2 -lowpass 17 -b 128

Скриншот c названием фильма

Скриншоты

Яндекс.Метрика
Рейтинг@Mail.ru