Спасибо за обмен / Thanks for Sharing (Стюарт Блумберг / Stuart Blumberg) [2012 г., драма, комедия, HDRip] MVO

 

Создавать темы 15-Фев-2014 10:04

--Спасибо за обмен / Thanks for Sharing--«Life is a journey you never have to take alone»- -Производство: США / Class 5 Films, Olympus Pictures
Год выпуска: 2012 г.
Жанр: драма, комедия
Продолжительность: 01:52:39--Мировая премьера: 8 сентября 2012
Релиз на DVD: 11 марта 2014, «Парадиз / Активижен»--Перевод: Профессиональный (многоголосый, закадровый)--Режиссер: Стюарт Блумберг / Stuart Blumberg--В ролях: Марк Руффало, Тим Роббинс, Гвинет Пэлтроу, Джош Гад, Джоэли Ричардсон, Патрик Фьюджит, Кэрол Кейн, Пинк, Михаэлла Уоткинс, Эмили Миде--Описание: Три сексоголика решили бороться с пагубной зависимостью. С этой целью они отправляются в специальную клинику, где в рамках лечения должны пройти 12 этапов реабилитационного процесса. Дело это, как оказывается, непростое, но чего не сделаешь ради того, чтобы оправиться от сексуальной зависимости и наладить конструктивные отношения с окружающими, пожалуй, в первый раз в жизни…-- --Качество видео: HDRip
Контейнер: AVI
Видео кодек: XviD
Аудио кодек: AC3
Видео: 720x400 (1.80:1), 23.976 fps, XviD build 50 ~1653 kbps avg, 0.24 bit/pixel
Аудио: 48 kHz, AC3 Dolby Digital, 2/0 (L,R) ch, ~192 kbps
Cубтитры: Отсутствуют
-

Media Info

Общее
Полное имя : H:\Torrent2\Spasibo.za.obmen.2012.P.HDRip.1.46GB_[pirat.ca].avi
Формат : AVI
Формат/Информация : Audio Video Interleave
Размер файла : 1,46 Гбайт
Продолжительность : 1 ч. 52 м.
Общий поток : 1855 Кбит/сек
Программа кодирования : VirtualDubMod 1.5.10.2 (build 2540/release)
Библиотека кодирования : VirtualDubMod build 2540/release
Видео
Идентификатор : 0
Формат : MPEG-4 Visual
Профиль формата : Advanced [email protected]
Параметр BVOP формата : 2
Параметр QPel формата : Нет
Параметр GMC формата : Без точки перехода
Параметр матрицы формата : Default (MPEG)
Идентификатор кодека : XVID
Идентификатор кодека/Подсказка : XviD
Продолжительность : 1 ч. 52 м.
Битрейт : 1654 Кбит/сек
Ширина : 720 пикселей
Высота : 400 пикселей
Соотношение сторон : 16:9
Частота кадров : 23,976 кадра/сек
Цветовое пространство : YUV
Субдискретизация насыщенности : 4:2:0
Битовая глубина : 8 бит
Тип развёртки : Прогрессивная
Метод сжатия : С потерями
Бит/(Пиксели*Кадры) : 0.240
Размер потока : 1,30 Гбайт (89%)
Библиотека кодирования : XviD 1.2.1 (UTC 2008-12-04)
Аудио
Идентификатор : 1
Формат : AC-3
Формат/Информация : Audio Coding 3
Расширение режима : CM (complete main)
Параметр Endianness формата : Big
Идентификатор кодека : 2000
Продолжительность : 1 ч. 52 м.
Вид битрейта : Постоянный
Битрейт : 192 Кбит/сек
Каналы : 2 канала
Расположение каналов : Front: L R
Частота : 48,0 КГц
Битовая глубина : 16 бит
Метод сжатия : С потерями
Размер потока : 155 Мбайт (10%)
Выравнивание : Разделение по промежуткам
Продолжительность промежутка : 42 мс. (1,00 видеокадр)
Время предзагрузки промежутка : 500 мс.

Скриншоты

Трейлер
Яндекс.Метрика
Рейтинг@Mail.ru