Вспоминая 1942 / Yi jiu si er / Back To 1942 (Фэн Сяоган / Xiaogang Feng) [2012 г., драма, HDRip] Dub [Лицензия]

 

Создавать темы 15-Фев-2014 10:02

--Вспоминая 1942 / Yi jiu si er / Back To 1942--«Такой войны вы не знали»-- Производство: Китай
Год выпуска: 2012 г.
Жанр: драма
Продолжительность: 02:26:26--Мировая премьера: 11 ноября 2012
Премьера (РФ): 9 мая 2013, «Кинопром»
Релиз на DVD: 30 января 2014, «Мистерия Звука»--Перевод: Профессиональный (полное дублирование) [Лицензия]--Режиссер: Фэн Сяоган / Xiaogang Feng--В ролях: Чжан Гуоли, Чэнь Даомин, Ли Сюэцзянь, Чжан Ханьюй, Тим Роббинс, Эдриан Броуди, Сюй Фань, Альфред Синг, Алек Су, Мо Чжан--Описание: 1942 год. Китай сотрясает Вторая мировая война. Застрявшая в феодализме страна оккупирована Японией. Засуха и неурожай. Приближается голод, который может уничтожить миллионы людей. Местные правители закрывают глаза на происходящее, увлёкшись внутренними распрями. Американский журналист и дипломат пытаются спасти людей, которые обречены на смерть.-- --Качество видео: HDRip
Контейнер: AVI
Видео кодек: XviD
Аудио кодек: AC3
Видео: 720x304 (2.37:1), 24 fps, XviD build 50 ~1676 kbps avg, 0.32 bit/pixel
Аудио: 48 kHz, AC3 Dolby Digital, 3/2 (L,C,R,l,r) + LFE ch, ~448 kbps
Cубтитры: Отсутствуют

Media Info

Общее
Полное имя : H:\Torrent2\Vspominaj.1942.2012.D.HDRip.2.18Gb_[pirat.ca].avi
Формат : AVI
Формат/Информация : Audio Video Interleave
Профиль формата : OpenDML
Размер файла : 2,18 Гбайт
Продолжительность : 2 ч. 26 м.
Общий поток : 2136 Кбит/сек
Программа кодирования : VirtualDubMod 1.5.10.2 (build 2540/release)
Библиотека кодирования : VirtualDubMod build 2540/release
Видео
Идентификатор : 0
Формат : MPEG-4 Visual
Профиль формата : Advanced [email protected]
Параметр BVOP формата : 2
Параметр QPel формата : Нет
Параметр GMC формата : Без точки перехода
Параметр матрицы формата : Default (MPEG)
Идентификатор кодека : XVID
Идентификатор кодека/Подсказка : XviD
Продолжительность : 2 ч. 26 м.
Битрейт : 1676 Кбит/сек
Ширина : 720 пикселей
Высота : 304 пикселя
Соотношение сторон : 2,35:1
Частота кадров : 24,000 кадра/сек
Цветовое пространство : YUV
Субдискретизация насыщенности : 4:2:0
Битовая глубина : 8 бит
Тип развёртки : Прогрессивная
Метод сжатия : С потерями
Бит/(Пиксели*Кадры) : 0.319
Размер потока : 1,71 Гбайт (78%)
Библиотека кодирования : XviD 1.2.1 (UTC 2008-12-04)
Аудио
Идентификатор : 1
Формат : AC-3
Формат/Информация : Audio Coding 3
Расширение режима : CM (complete main)
Параметр Endianness формата : Big
Идентификатор кодека : 2000
Продолжительность : 2 ч. 26 м.
Вид битрейта : Постоянный
Битрейт : 448 Кбит/сек
Каналы : 6 каналов
Расположение каналов : Front: L C R, Side: L R, LFE
Частота : 48,0 КГц
Битовая глубина : 16 бит
Метод сжатия : С потерями
Размер потока : 469 Мбайт (21%)
Выравнивание : Разделение по промежуткам
Продолжительность промежутка : 42 мс. (1,00 видеокадр)
Время предзагрузки промежутка : 500 мс.

Скриншоты

Трейлер
Яндекс.Метрика
Рейтинг@Mail.ru