Корабль / Серии: 1-21 из 26 (Олег Асадулин, Марк Горобец) [2014 г., фантастика, приключения, мелодрама, SATRip]

 

Создавать темы 15-Фев-2014 09:43

-Корабль-- Производство: Россия, «Yellow, Black and White», при участии кинокомпании «Мэйнстрим фильм» и телеканала «Ю»
Жанр: фантастика, приключения, мелодрама
Год выпуска: 2014 г.
Продолжительность: 00:48:00 (серия)
Режиссер: Олег Асадулин, Марк Горобец-В ролях: Дмитрий Певцов, Илья Любимов, Юлия Агафонова, Агриппина Стеклова, Владимир Виноградов, Ингрид Олеринская, Матвей Зубалевич, Сергей Друзьяк, Александр Пугачёв (II), Илья Иосифов, Ярослава Базаева, Дмитрий Горевой, Ирина Антоненко, Мария Малиновская, Роман Курцын, Руслан Садковский, Вячеслав Бондарчук, Анастасия Сорокина, Фёдор Сухов, Дарья Храмцова-Описание: Что может быть лучше путешествия на настоящем паруснике? Бескрайнее море, солнце, романтика, будет, о чем рассказать друзьям. На это рассчитывали двадцать курсантов, поднявшись на борт учебного парусного судна «Надежда». Но беззаботный отдых длился недолго. Взрыв адронного коллайдера приводит к глобальной катастрофе, в результате которой все материки ушли под воду. Возможно, единственными выжившими людьми на планете оказались пассажиры «Надежды». Корабль становится их единственным домом. Правила жизни меняются. Никто не знает, что будет завтра. Спутники цивилизации: города с людьми, магазины с продуктами и компьютеры с интернетом – все бесследно исчезло. Вместо этого - цунами, рыбы-мутанты, вулканы и дикие птицы. Героям предстоит растягивать провизию на неопределенный срок и делить с друзьями последнее яблоко. Но со временем все эти проблемы теряют значение. У курсантов есть парусник, надежное плечо друга и шанс найти настоящую любовь. Все чувства обостряются, а страсти начинают закипать, ведь каждый день может быть последним.-Качество видео: SATRip
Контейнер: AVI
Видео кодек: XviD
Аудио кодек: MP3
Видео: 720x384,~ 1500 kbps,25,000 fps,0.217 Бит/Пиксел
Аудио: 128 kbps,2 ch, 48,0 kHz
Cубтитры: отсутствуют

Media Info

Формат : AVI
Формат/Информация : Audio Video Interleave
Размер файла : 564 Мбайт
Продолжительность : 48 м.
Общий поток : 1638 Кбит/сек
Библиотека кодирования : VirtualDub build 35491/release
Видео
Идентификатор : 0
Формат : MPEG-4 Visual
Параметр BVOP формата : 1
Параметр QPel формата : Нет
Параметр GMC формата : Без точки перехода
Параметр матрицы формата : Default (H.263)
Режим смешивания : Сжатый битовый поток
Идентификатор кодека : DX50
Идентификатор кодека/Подсказка : DivX 5
Продолжительность : 48 м.
Битрейт : 1501 Кбит/сек
Ширина : 720 пикселей
Высота : 384 пикселя
Соотношение сторон : 1,85:1
Частота кадров : 25,000 кадров/сек
Цветовое пространство : YUV
Субдискретизация насыщенности : 4:2:0
Битовая глубина : 8 бит
Тип развёртки : Прогрессивная
Метод сжатия : С потерями
Бит/(Пиксели*Кадры) : 0.217
Размер потока : 517 Мбайт (92%)
Библиотека кодирования : DivX 6.8.5 (UTC 2009-08-20)
Аудио
Идентификатор : 1
Формат : MPEG Audio
Версия формата : Version 1
Профиль формата : Layer 3
Режим : Joint stereo
Расширение режима : MS Stereo
Идентификатор кодека : 55
Идентификатор кодека/Подсказка : MP3
Продолжительность : 48 м.
Вид битрейта : Постоянный
Битрейт : 128 Кбит/сек
Каналы : 2 канала
Частота : 48,0 КГц
Метод сжатия : С потерями
Размер потока : 44,1 Мбайт (8%)
Выравнивание : Разделение по промежуткам
Продолжительность промежутка : 40 мс. (1,00 видеокадр)
Время предзагрузки промежутка : 500 мс.

Скриншоты

Раздача ведется путем добавления новых серий!

Внимание! Раздача ведётся путём добавления новых серий; при каждом добавлении создётся новый торрент. Чтобы начать докачку новой серии, пользователям необходимо сделать следующее:
(1) остановить скачивание,
(2) удалить старый торрент у себя из клиента (старые серии удалять не надо),
(3) скачать новый торрент и запустить его у себя в клиенте вместо старого, при этом указать клиенту путь в старую папку куда и должно происходить скачивание новых серий.
Ваш клиент при этом должен произвести хеширование (проверку) старой папки (если не производит сам - помогите ему сделать это), и будет докачивать только те серии которых у вас ещё нет. Старые серии при этом не удаляются, а продолжают раздаваться!
Eсли вы уже удалили старые серии, то предотвратить повторную закачку старых серий можно, отжав галочку в соответствующих местах при запуске нового торрента.
Яндекс.Метрика
Рейтинг@Mail.ru