ХХII Зимние Олимпийские Игры Сочи 2014 / Биатлон, Гонка преследования 12,5 км / Мужчины (Спорт 1 HD - Дмитрий Губерниев) [10.02.2014 г., HDTVRip, MKV, RU]

 

Создавать темы 15-Фев-2014 04:06

ХХII Зимние Олимпийские Игры Сочи 2014 /
Биатлон, Гонка преследования 12,5 км / Мужчины
Жаркие. Зимние. Твои.Официальный сайт "Сочи 2014" -Год выпуска: 10.02.2014 г.
Вид спорта: Биатлон, Гонка преследования 12,5 км
Участники: Мужчины
Продолжительность: 00:47:00
Комментатор: Дмитрий Губерниев
Язык комментариев: русский
Автор рипа / записи: Striker-ТВ Канал: -Описание: Арена: Лаура (Сочи, Россия) 10 февраля 2014 года, понедельник. 17:00 Киев-Качество видео: HDTVRip
Контейнер: MKV
Видео кодек: H.264
Аудио кодек: AC3
Видео: 4424 Кбит/сек; 1280*720 (16:9); в 50,000 кадра/сек; AVC; 0.096 Бит/(Пиксели*Кадры)
Аудио: 192 Кбит/сек; 48,0 КГц; 16 бит; 2 каналоа; АС-3

Составы команд

1 Мартен Фуркад Франция
2 Ондржей Моравец Чехия
3 Жан-Гийом Беатрикс Франция
4 Уле-Эйнар Бьорндален Норвегия
5 Евгений Устюгов Россия
6 Симон Шемпп Германия
7 Эмиль Хегле Свендсен Норвегия
8 Симон Эдер Австрия
9 Андрей Расторгуев Латвия
10 Доминик Ландертингер Австрия
11 Натан Смит Канада
12 Кристоф Зуман Австрия
13 Фредрик Линдстрём Швеция
14 Антон Шипулин Россия
15 Евгений Гараничев Россия
16 Эрик Лессер Германия
17 Лукас Хофер Италия
18 Симон Фуркад Франция
19 Арнд Пайффер Германия
20 Ярослав Соукуп Чехия
21 Симон Детьё Франция
22 Тим Бурк США
23 Матей Казар Словакия
24 Клемен Бауэр Словения
25 Доминик Виндиш Италия
26 Жан-Филипп Легеллек Канада
27 Тарьей Бё Норвегия
28 Тобиас Арвидсон Швеция
29 Ян Савицкий Казахстан
30 Бьорн Ферри Швеция
31 Яков Фак Словения
32 Йоханнес Бё Норвегия
33 Дмитрий Малышко Россия
34 Карл-Йохан Бергман Швеция
35 Брендан Грин Канада
36 Андрей Дериземля Украина
37 Даниэль Мезотич Австрия
38 Лоуэлл Бэйли США
39 Сергей Семёнов Украина
40 Томас Каукенас Литва
41 Владимир Чепелин Белоруссия
42 Кристиан Де Лоренци Италия
43 Кристоф Штефан Германия
44 Артём Прима Украина
45 Индрек Тобрелутс Эстония
46 Каури Койв Эстония
47 Корнел Пукьяну Румыния
48 Красимир Анев Болгария
49 Янез Марич Словения
50 Сергей Новиков Белоруссия
51 Евгений Абраменко Белоруссия
52 Павол Хурайт Словакия
53 Лейф Нордгрен США
54 Сергей Седнев Украина
55 Владимир Илиев Болгария
56 Юрий Лядов Белоруссия
57 Зерафин Вистнер Швейцария
58 Сергей Наумик Казахстан
59 Данил Степченко Эстония
Михал Шлезингр Чехия

Media Info

Общее
Уникальный идентификатор : 218361804623677717155849845062401639176 (0xA446F42DC72E48EC8D4BA09A1F3DC308)
Формат : Matroska
Версия формата : Version 2
Размер файла : 1,55 Гбайт
Продолжительность : 47 м.
Общий поток : 4710 Кбит/сек
Название фильма : Веб-камера, TV или другое видеоустройство
Программа кодирования : Lavf54.63.104
Библиотека кодирования : Lavf54.63.104
Видео
Идентификатор : 1
Формат : AVC
Формат/Информация : Advanced Video Codec
Профиль формата : [email protected]
Параметр CABAC формата : Нет
Параметр ReFrames формата : 1 кадр
Идентификатор кодека : V_MPEG4/ISO/AVC
Продолжительность : 47 м.
Битрейт : 4424 Кбит/сек
Ширина : 1280 пикселей
Высота : 720 пикселей
Соотношение сторон : 16:9
Режим частоты кадров : Постоянный
Частота кадров : 50,000 кадров/сек
Цветовое пространство : YUV
Субдискретизация насыщенности : 4:2:0
Битовая глубина : 8 бит
Тип развёртки : Прогрессивная
Бит/(Пиксели*Кадры) : 0.096
Размер потока : 1,45 Гбайт (94%)
Default : Да
Forced : Нет
Аудио
Идентификатор : 2
Формат : AC-3
Формат/Информация : Audio Coding 3
Расширение режима : CM (complete main)
Параметр Endianness формата : Big
Идентификатор кодека : A_AC3
Продолжительность : 47 м.
Вид битрейта : Постоянный
Битрейт : 192 Кбит/сек
Каналы : 2 канала
Расположение каналов : Front: L R
Частота : 48,0 КГц
Битовая глубина : 16 бит
Метод сжатия : С потерями
Размер потока : 64,6 Мбайт (4%)
Default : Да
Forced : Нет

Скриншоты

Яндекс.Метрика
Рейтинг@Mail.ru