[ Сегодня на трекере фрилич! Идет свободное скачивание без начисления Download ]

ХХII Зимние Олимпийские Игры Сочи 2014 / Биатлон, Гонка преследования 10 км / Женщины (Спорт 1 HD - Дмитрий Губерниев) [11.02.2014 г., HDTVRip, MKV, RU]

 

Создавать темы 15-Фев-2014 04:04

ХХII Зимние Олимпийские Игры Сочи 2014 /
Биатлон, Гонка преследования 10 км / Женщины
Жаркие. Зимние. Твои.Официальный сайт "Сочи 2014" -Год выпуска: 11.02.2014 г.
Вид спорта: Биатлон, Гонка преследования 10 км
Участники: Женщины
Продолжительность: 00:48:47
Комментатор: Дмитрий Губерниев
Язык комментариев: русский
Автор рипа / записи: Striker-ТВ Канал: -Арена: Лаура (Сочи, Россия) 11 февраля 2014 года, вторник. 17:00 Киев-Качество видео: HDTVRip
Контейнер: MKV
Видео кодек: H.264
Аудио кодек: AC3
Видео: 4411 Кбит/сек; 1280*720 (16:9); в 50,000 кадра/сек; AVC; 0.096 Бит/(Пиксели*Кадры)
Аудио: 192 Кбит/сек; 48,0 КГц; 16 бит; 2 каналоа; АС-3

Составы команд

1 Дарья Домрачева Белоруссия
2 Тура Бергер Норвегия
3 Тея Грегорин Словения
4 Габриэла Соукалова Чехия
5 Валентина Семеренко Украина
6 Анастасия Кузьмина Словакия
7 Ольга Вилухина Россия
8 Карин Оберхофер Италия
9 Анн-Кристин Офедт Флатланн Норвегия
10 Вита Семеренко Украина
11 Ольга Зайцева Россия
12 Анаи Бескон Франция
13 Надежда Скардино Белоруссия
14 Мари Дорен-Абер Франция
15 Селина Гаспарин Швейцария
16 Кайса Мякяряйнен Финляндия
17 Доротея Вирер Италия
18 Сюзан Данкли США
19 Моника Хойниш Польша
20 Вероника Новаковска-Земняк Польша
21 Вероника Виткова Чехия
22 Елена Пидгрушная Украина
23 Яна Романова Россия
24 Тириль Экхофф Норвегия
25 Зина Кохер Канада
26 Ева Тофалви Румыния
27 Эви Захенбахер-Штеле Германия
28 Меган Имри Канада
29 Андреа Хенкель Германия
30 Лаура Дальмайер Германия
31 Элиза Гаспарин Швейцария
32 Фуюко Сузуки Япония
33 Людмила Калинчик Белоруссия
34 Кристина Палка Польша
35 Яна Герекова Словакия
36 Сюннёве Сулемдаль Норвегия
37 Елена Хрусталёва Казахстан
38 Магдалена Гвиздонь Польша
39 Лиза Тереза Хойзер Австрия
40 Франциска Пройс Германия
41 Дарья Усанова Казахстан
42 Ева Пускарчикова Чехия
43 Диана Расимовичюте Литва
44 Анаис Шевалье Франция
45 Розанна Кроуфорд Канада
46 Виктория Падьяль Эрнандес Испания
47 Екатерина Шумилова Россия
48 Микела Понца Италия
49 Николь Гонтье Италия
50 Тан Цзялинь Китай
51 Сара Студебейкер США
52 Йитка Ландова Чехия
53 Чжан Ян Китай
54 Аннализ Кук США
55 Йоханна Талихарм Эстония
56 Анастасия Дуборезова Белоруссия
Меган Танди-Хайнике Канада
Мари Лаукканен Финляндия
Мари-Лор Брюне Франция
Юлия Джима Украина

Media Info

Общее
Уникальный идентификатор : 172390945358967470268069016986846166224 (0x81B149D353123C44D336B86945DEFCD0)
Формат : Matroska
Версия формата : Version 2
Размер файла : 1,60 Гбайт
Продолжительность : 48 м.
Общий поток : 4697 Кбит/сек
Название фильма : Веб-камера, TV или другое видеоустройство
Программа кодирования : Lavf54.63.104
Библиотека кодирования : Lavf54.63.104
Видео
Идентификатор : 1
Формат : AVC
Формат/Информация : Advanced Video Codec
Профиль формата : [email protected]
Параметр CABAC формата : Нет
Параметр ReFrames формата : 1 кадр
Идентификатор кодека : V_MPEG4/ISO/AVC
Продолжительность : 48 м.
Битрейт : 4411 Кбит/сек
Ширина : 1280 пикселей
Высота : 720 пикселей
Соотношение сторон : 16:9
Режим частоты кадров : Постоянный
Частота кадров : 50,000 кадров/сек
Цветовое пространство : YUV
Субдискретизация насыщенности : 4:2:0
Битовая глубина : 8 бит
Тип развёртки : Прогрессивная
Бит/(Пиксели*Кадры) : 0.096
Размер потока : 1,50 Гбайт (94%)
Default : Да
Forced : Нет
Аудио
Идентификатор : 2
Формат : AC-3
Формат/Информация : Audio Coding 3
Расширение режима : CM (complete main)
Параметр Endianness формата : Big
Идентификатор кодека : A_AC3
Продолжительность : 48 м.
Вид битрейта : Постоянный
Битрейт : 192 Кбит/сек
Каналы : 2 канала
Расположение каналов : Front: L R
Частота : 48,0 КГц
Битовая глубина : 16 бит
Метод сжатия : С потерями
Размер потока : 67,0 Мбайт (4%)
Default : Да
Forced : Нет

Скриншоты

Яндекс.Метрика
Рейтинг@Mail.ru