Голые грехи / Naked Sins (Стив Фокс) [2006, драма, эротика, детектив, DVDRip] DVO

 

Создавать темы 14-Фев-2014 20:53

--Голые грехи / Naked Sins-- Год выпуска: 2006
Страна: США
Производство: MRG Entertainment
Жанр: драма, эротика, детектив
Продолжительность: 01:22:00
Перевод: Профессиональный (двухголосый закадровый)-Режиссер: Стив Фокс-В ролях: Джордан Стайлз, Кайлин, Мэтт Далпиаз, Глен Медоуз, Том Стоун, Дэнни Пейп, Джули Медоуз, Николь Оринг, Роберто, Моника Рамирез...-Описание: Эрика и Коул управляют довольно специфическим бизнесом: они осуществляют любые эротические фантазии и желания своих клиентов – соединяют людей, умеющих хранить молчание для волнующих, чувственных и анонимных встреч, без лишних вопросов и каких-либо обязательств. Они работают...Одного из клиентов убивают при загадочных обстоятельствах, и в их дела влезает полиция.-- --Качество: DVDRip
Формат: AVI
Видео кодек: DivX
Аудио кодек: MP3
Видео: 720x416 (1.73:1), 23.976 fps, DivX MPEG-4, ~1399 kbps avg, 0.195 bit/pixel
Аудио #1: [RUS] 48.0 kHz, MPEG Audio Layer 3, 2 ch, ~128.00 kbps avg
Аудио #2: [ENG] 48.0 kHz, MPEG Audio Layer 3, 2 ch, ~128.00 kbps avg
Субтитры: нет--

Media Info

Общее
Полное имя : D:Naked.Sins.2006.DVDRip.avi
Формат : DivX
Формат/Информация : Hack of AVI
Размер файла : 989 Мбайт
Продолжительность : 1 ч. 22 м.
Общий поток : 1669 Кбит/сек
Видео
Идентификатор : 0
Формат : MPEG-4 Visual
Параметр BVOP формата : 1
Параметр QPel формата : Нет
Параметр GMC формата : Без точки перехода
Параметр матрицы формата : Default (H.263)
Режим смешивания : Сжатый битовый поток
Идентификатор кодека : DX50
Идентификатор кодека/Подсказка : DivX 5
Продолжительность : 1 ч. 22 м.
Битрейт : 1399 Кбит/сек
Ширина : 720 пикселей
Высота : 416 пикселей
Соотношение сторон : 1,731
Частота кадров : 23,976 кадра/сек
Цветовое пространство : YUV
Субдискретизация насыщенности : 4:2:0
Битовая глубина : 8 бит
Тип развёртки : Прогрессивная
Метод сжатия : С потерями
Бит/(Пиксели*Кадры) : 0.195
Размер потока : 829 Мбайт (84%)
Заголовок : Video
Библиотека кодирования : DivX 6.6.1.4
Аудио #1
Идентификатор : 1
Формат : MPEG Audio
Версия формата : Version 1
Профиль формата : Layer 3
Идентификатор кодека : 55
Идентификатор кодека/Подсказка : MP3
Продолжительность : 1 ч. 22 м.
Вид битрейта : Постоянный
Битрейт : 128 Кбит/сек
Каналы : 2 канала
Частота : 48,0 КГц
Метод сжатия : С потерями
Размер потока : 75,9 Мбайт (8%)
Выравнивание : Разделение по промежуткам
Продолжительность промежутка : 42 мс. (1,00 видеокадр)
Время предзагрузки промежутка : 500 мс.
Заголовок : Audio
Аудио #2
Идентификатор : 2
Формат : MPEG Audio
Версия формата : Version 1
Профиль формата : Layer 3
Идентификатор кодека : 55
Идентификатор кодека/Подсказка : MP3
Продолжительность : 1 ч. 22 м.
Вид битрейта : Постоянный
Битрейт : 128 Кбит/сек
Каналы : 2 канала
Частота : 48,0 КГц
Метод сжатия : С потерями
Размер потока : 75,9 Мбайт (8%)
Выравнивание : Разделение по промежуткам
Продолжительность промежутка : 42 мс. (1,00 видеокадр)
Время предзагрузки промежутка : 500 мс.
Заголовок : Audio

Скриншоты

-- --
Яндекс.Метрика
Рейтинг@Mail.ru