[ Сегодня на трекере фрилич! Идет свободное скачивание без начисления Download ]

Таракан (Раса Страутмане) [1988 г., рисованный мультфильм, DVB]

 

Создавать темы 09-Окт-2013 16:18

Таракан
Жанр: рисованный мультфильм
Год выпуска: 1988
Продолжительность: 00:08:27
Режиссёр: Раса Страутмане
Описание: Герой мультфильма - Таракан находит для себя радость в мелких повседневных вещах. Мы видим несколько эпизодов из его жизни в сарае, поход в ресторан, который для тараканов расположен в полу настоящего ресторана, получение лишь корпуса телевизора вместо самого телевизора ...
Трансляция спутникового канала: "Карусель"
Качество видео: DVB
Формат видео: MPEG-PS
Видео: MPEG2 Video, 720x576, 25 fps, 3900 kbps
Аудио: MPEG Audio, 2 сh, 48 kHz, 192 kbps

MediaInfo

General
Complete name : D:\Таракан. (1988)_DVB by SLuMeP.mpg
Format : MPEG-PS
File size : 254 MiB
Duration : 8mn 27s
Overall bit rate mode : Variable
Overall bit rate : 4 189 Kbps
Video
ID : 224 (0xE0)
Format : MPEG Video
Format version : Version 2
Format profile : [email protected]
Format settings, BVOP : Yes
Format settings, Matrix : Custom
Format settings, GOP : M=3, N=12
Duration : 8mn 27s
Bit rate mode : Variable
Bit rate : 3 914 Kbps
Maximum bit rate : 5 000 Kbps
Width : 720 pixels
Height : 576 pixels
Display aspect ratio : 4:3
Frame rate : 25.000 fps
Standard : PAL
Color space : YUV
Chroma subsampling : 4:2:0
Bit depth : 8 bits
Scan type : Interlaced
Scan order : Top Field First
Compression mode : Lossy
Bits/(Pixel*Frame) : 0.377
Time code of first frame : 00:00:00:00
Time code source : Group of pictures header
Stream size : 237 MiB (93%)
Audio
ID : 192 (0xC0)
Format : MPEG Audio
Format version : Version 1
Format profile : Layer 2
Duration : 8mn 27s
Bit rate mode : Constant
Bit rate : 192 Kbps
Channel(s) : 2 channels
Sampling rate : 48.0 KHz
Compression mode : Lossy
Stream size : 11.6 MiB (5%)

Скриншоты


Яндекс.Метрика
Рейтинг@Mail.ru