Малавита / Семейство / The Family (Люк Бессон / Luc Besson) [2013 г., черная комедия, криминал, боевик, HDRip] [US Transfer] AVO (Живов)

 

Создавать темы 14-Фев-2014 02:21

-Малавита / Семейство / The Family (US Transfer)-- Год выпуска: 2013
Производство: США, Франция, EuropaCorp
Жанр: черная комедия, криминал, боевик
Продолжительность: 01:51:34-Перевод: Авторский (одноголосый, закадровый) Живов-Субтитры: отсутствуют
Режиссер: Люк Бессон / Luc Besson
В ролях: Роберт Де Ниро, Мишель Пфайффер, Томми Ли Джонс, Дианна Агрон, Джон Фреда, Рикардо Сорберо, Доминик Кьянезе, Дэвид Белль, Джон Д’Лео, Джино Кафарелли--Описание: Что вы знаете о своих соседях? Особенно о тех, которые заявляются среди ночи… Так, однажды на тихой улочке провинциального французского городка поселился писатель по фамилии Блейк, со своим семейством и собакой Малавитой. На этом многовековое спокойствие города закончилось. Почему сгорел местный супермаркет? Чем рискует медлительный водопроводчик? Что лежит в рюкзаке у милого парня в бежевых бриджах? Кто бы мог представить, что на самом деле мистер Блейк — бывший глава мафии, которого власти прячут здесь от преследования. И вот в городок приезжают люди «Коза Ностры»… Фильм снят по мотивам романа Тонино Бенаквисты «Малавита».-- -
Качество видео: HDRip
Контейнер: AVI
Видео кодек: XviD
Аудио кодек: AC3
Видео: 720x304 (2.37:1), 23.976 fps, XviD build 73 ~1856 kbps avg, 0.35 bit/pixel-Аудио : 48 kHz, AC3 Dolby Digital, 3/2 (L,C,R,l,r) + LFE ch, ~448 kbps - Юрий Живов-

кванты

I frames: 2316 frames, size = 45977/106482915, quants = 2 / 2.00 / 2
P frames: 80331 frames, size = 12171/977735549, quants = 2 / 2.00 / 2
B frames: 77840 frames, size = 6025/469000068, quants = 2 / 2.00 / 2

Рецензия

Моя рецензия к фильму «Малавита»
Не пойму тех людей, которые называют этот фильм комедией. Как-то не смешно мне было. Но очень интересно. Интересно посмотреть «куда катится» старичье, те актеры, на которых я смотрел и восторгался, когда был еще пацаном, где-то лет двадцать назад. Они стареют и стареют и, вероятно, скоро перестанут радовать мой глаз, ласкать слух «крепкими» фразами, озвученными Гавриловым, Володарским, Живовым :) и прочими. Вот и ДеНиро уже не тот, и Пфайфер сильно постарела… Они конечно пытаются еще держать раж, но все труднее и труднее верится в то, что они «изображают»….. Поскольку они уже не молоды……
Фильм со странным названием МАЛАВИТА конечно же в первую очередь привлек своим актерским составом. Сам стиль фильма выполнен как смесь криминальной драмы и черной комедии и, наверное, был одним из неплохих компиляций сюжетов последнего времени. Времени полного компьютерной графики, спецэффектов и «унитазного» юмора. Нечто очень напомнившее мне по стилю изложения «Анализируй это».
В основу сюжета положена история бывшего гангстера, сдавшего своих подельников, который со своей семьей, в том числе детьми, явно воспитанными в криминальной среде, скрывается с помощью программы защиты свидетелей от желающих отомстить за это гангстеров из итальянской мафии. Меняются их имена, фамилии, неизменна лишь кличка собаки – «Малавита». Существование семейки в обыденной жизни с иронией и показано в фильме.
Ну что ж фильм явно достоин просмотра, достаточно оригинален сюжет, неплохой юмор и в целом здОровская игра актеров. Конечно, не обошлось без «вливаний» безумных штучек от Люка Бессонна с его паркуром, но в целом добрый фильм о том, чего не бывает в жизни.
Моя оценка 8 из 10.

Media Info

General
Complete name : G:\На пиратку\! не розданные\The Family.2013.HDRip.Jivov_byGross.avi
Format : AVI
Format/Info : Audio Video Interleave
File size : 1.80 GiB
Duration : 1h 51mn
Overall bit rate : 2 314 Kbps
Writing application : VirtualDubMod 1.5.10.2 (build 2540/release)
Writing library : VirtualDubMod build 2540/release
Video
ID : 0
Format : MPEG-4 Visual
Format profile : Advanced [email protected]
Format settings, BVOP : Yes
Format settings, QPel : No
Format settings, GMC : No warppoints
Format settings, Matrix : Custom
Codec ID : XVID
Codec ID/Hint : XviD
Duration : 1h 51mn
Bit rate : 1 856 Kbps
Width : 720 pixels
Height : 304 pixels
Display aspect ratio : 2.35:1
Frame rate : 23.976 fps
Color space : YUV
Chroma subsampling : 4:2:0
Bit depth : 8 bits
Scan type : Progressive
Compression mode : Lossy
Bits/(Pixel*Frame) : 0.354
Stream size : 1.45 GiB (80%)
Writing library : XviD 73
Audio
ID : 1
Format : AC-3
Format/Info : Audio Coding 3
Mode extension : CM (complete main)
Format settings, Endianness : Big
Codec ID : 2000
Duration : 1h 51mn
Bit rate mode : Constant
Bit rate : 448 Kbps
Channel count : 6 channels
Channel positions : Front: L C R, Side: L R, LFE
Sampling rate : 48.0 KHz
Bit depth : 16 bits
Compression mode : Lossy
Stream size : 357 MiB (19%)
Alignment : Split accross interleaves
Interleave, duration : 42 ms (1.00 video frame)
Interleave, preload duration : 500 ms

Скриншоты

-
Яндекс.Метрика
Рейтинг@Mail.ru