Побег с планеты Земля / Escape from Planet Earth (2013) BDRip 1080p [Hi10P] от FREEISLAND

 

Создавать темы 09-Окт-2013 15:52


Побег с планеты Земля
Escape from Planet Earth
(2013)
BDRip 1080p [Hi10P] от FREEISLAND

Жанр: мультфильм, фэнтези, приключения, семейный
Режиссер: Кэллан Брукнер / Cal Brunker
Роли озвучивали:
Брендан Фрейзер, Роб Кордри, Рики Джервэйс, Джонатан Морган Хейт, Джессика Альба, София Вергара, Пол Шеер, Джейсон Симпсон, Сара Джессика Паркер, Даг Абрахамс
Описание:
На планете Бааб, в самом центре Вселенной, два брата делают всё возможное, чтобы защитить свою галактику. Они — полные противоположности. Если девиз Гарри — «сначала подумай, потом сделай», то отважный Скорч живет по закону «сила есть — ума не надо», что не мешает им слаженно работать. Но однажды они получают сигнал S.O.S. с опасной планеты…под названием Земля. Скорч, сломя голову, бросается на помощь, и, разумеется, влипает в неприятности. Только Гарри может вытащить его из «Зоны 51». Братья откроют множество головокружительных тайн, но смогут ли они сбежать с самой опасной планеты во Вселенной?

Официальный сайт
Страна: США, Канада
Выпущено: Blue Yonder Films, GRF Productions, Jon Shestack Productions
Продолжительность: 1 ч. 29 м. 15 с.
Перевод: Русский профессиональный (полное дублирование)
Оригинальная разбивка на главы: сохраненаВнимание! Рип в High 10 Profile, в настоящее время не поддерживается большинством аппаратных проигрывателей.
Для корректного воспроизведения может потребоваться обновление ПО.
Владельцам несовместимого железа просьба не беспокоить, на трекере есть альтернативные релизы.
Качество: BDRip 1080p Hi10P (SSIM: 0.9886651)
Исходник: Blu-Ray Disc
Контейнер: MKV
Видео кодек: x264 [email protected]
Аудио кодек: AC-3
Видео: AVC at 4215 Кбит/сек, 1920 x 824 (2.330) at 23.976 fps
Аудио: AC-3 at 448 Кбит/сек, 6 каналов, 48,0 КГц
Субтитры: русские полные (SRT/UTF-8)

MediaInfo

Общее
Уникальный идентификатор : 183918303666693828600704708945759723784 (0x8A5D607846898E97A8D1025FF2EC6108)
Полное имя : Побег с планеты Земля [Escape from Planet Earth] (2013) BDRip-Hi10P 1080p by_F.HD.mkv
Формат : Matroska
Версия формата : Version 4 / Version 2
Размер файла : 2,91 Гбайт
Продолжительность : 1 ч. 29 м.
Общий поток : 4663 Кбит/сек
Название фильма : релиз от FREEISLAND.ORG
Дата кодирования : UTC 2013-10-08 20:19:44
Программа кодирования : mkvmerge v6.4.1 ('Omega Point') built on Sep 16 2013 22:05:10
Библиотека кодирования : libebml v1.3.0 + libmatroska v1.4.1
Видео
Идентификатор : 1
Формат : AVC
Формат/Информация : Advanced Video Codec
Профиль формата : High [email protected]
Параметр CABAC формата : Да
Параметр ReFrames формата : 16 кадров
Идентификатор кодека : V_MPEG4/ISO/AVC
Продолжительность : 1 ч. 29 м.
Битрейт : 4215 Кбит/сек
Ширина : 1920 пикселей
Высота : 824 пикселя
Соотношение сторон : 2,35:1
Режим частоты кадров : Постоянный
Частота кадров : 23,976 кадра/сек
Цветовое пространство : YUV
Субдискретизация насыщенности : 4:2:0
Битовая глубина : 10 бит
Тип развёртки : Прогрессивная
Бит/(Пиксели*Кадры) : 0.111
Размер потока : 2,57 Гбайт (88%)
Библиотека кодирования : x264 core 138 r2359+704+48 3f879a0 tMod [[email protected] X86_64]
Настройки программы : cabac=1 / ref=16 / deblock=1:1:1 / analyse=0x3:0x133 / me=umh / subme=11 / psy=1 / fade_compensate=0.00 / psy_rd=1.00:0.17 / mixed_ref=1 / me_range=64 / chroma_me=1 / trellis=2 / 8x8dct=1 / cqm=0 / deadzone=21,11 / fast_pskip=0 / chroma_qp_offset=-3 / threads=12 / lookahead_threads=3 / sliced_threads=0 / nr=0 / decimate=1 / interlaced=0 / bluray_compat=0 / constrained_intra=0 / fgo=0 / bframes=11 / b_pyramid=2 / b_adapt=2 / b_bias=0 / direct=3 / weightb=1 / open_gop=0 / weightp=2 / keyint=268 / keyint_min=21 / scenecut=40 / intra_refresh=0 / rc_lookahead=0 / rc=2pass / mbtree=0 / bitrate=4215 / ratetol=1.0 / qcomp=1.00 / qpmin=0:0:0 / qpmax=48:48:48 / qpstep=4 / cplxblur=20.0 / qblur=0.5 / vbv_maxrate=240000 / vbv_bufsize=240000 / nal_hrd=none / ip_ratio=1.40 / pb_ratio=1.30 / aq=4:0.82 / aq-sensitivity=15.00 / aq-factor=1.00:1.00:1.00 / aq2=1:1.10 / aq2-sensitivity=11.00 / aq2-factor=1.00:1.00:1.00 / aq3=0
Default : Да
Forced : Нет
Основные цвета : BT.709
Характеристики трансфера : BT.709
Коэффициенты матрицы : BT.709
Аудио
Идентификатор : 2
Формат : AC-3
Формат/Информация : Audio Coding 3
Расширение режима : CM (complete main)
Параметр Endianness формата : Big
Идентификатор кодека : A_AC3
Продолжительность : 1 ч. 29 м.
Вид битрейта : Постоянный
Битрейт : 448 Кбит/сек
Каналы : 6 каналов
Расположение каналов : Front: L C R, Side: L R, LFE
Частота : 48,0 КГц
Битовая глубина : 16 бит
Метод сжатия : С потерями
Размер потока : 286 Мбайт (10%)
Заголовок : Dub
Язык : Russian
Default : Да
Forced : Нет
Текст
Идентификатор : 3
Формат : UTF-8
Идентификатор кодека : S_TEXT/UTF8
Идентификатор кодека/Информация : UTF-8 Plain Text
Заголовок : Full
Язык : Russian
Default : Нет
Forced : Нет
Меню
00:00:00.000 : en:01. Main Title
00:05:00.334 : en:02. Manhattan Island Jail
00:09:22.801 : en:03. "1997 - Now"
00:14:11.801 : en:04. Snake Plissken
00:21:20.168 : en:05. Small Jet In Trouble
00:28:12.168 : en:06. President In The Pod
00:31:56.769 : en:07. "You Touch Me, He Dies"
00:36:03.303 : en:08. "Call Me Snake"
00:42:03.137 : en:09. Prepared And Betrayed
00:46:20.304 : en:10. Going In
00:51:29.838 : en:11. A Friendly Face
00:58:30.005 : en:12. The Wrong Guy
01:03:20.472 : en:13. Sewer Rats Call
01:08:43.806 : en:14. Caught After Dark
01:17:25.140 : en:15. New York Cabbie
01:21:40.340 : en:16. Maggie And Brain

Bitrate Viewer

Скриншоты



СЭМПЛ
Релиз от:
Если у вас возникают вопросы типа:
-почему у меня есть звук и отсутствует изображение?
-почему у меня рассыпается картинка?
-почему у меня картинка фонит синевой или зеленью?
-зачем и кому всё это нужно?
и тому подобные, читаем FAQ.

Что такое 10-ти битное видео (High 10 Profile - Hi10P), и как его смотреть?

ссылка на FAQ запрещена правилами.
По этому, гуглим на тему спойлера (Что такое 10-ти битное видео (High 10 Profile - Hi10P), и как его смотреть?).
Яндекс.Метрика
Рейтинг@Mail.ru