Олимпийские игры 2014. Лыжное двоеборье. Мужчины. Трамплин К-95 + гонка 10 км (2014.02.12) HDTVRip

 

Создавать темы 13-Фев-2014 17:09

Олимпийские игры 2014. Лыжное двоеборье. Мужчины. Трамплин К-95 + гонка 10 км (2014.02.12) - Режиссер / Телекомпания: СПОРТ HD
Русское название: Олимпийские игры 2014
Год выпуска: 2014
Жанр: Спорт
Выпущено: Россия, НТВ+
Описание:
XXII Зимние Олимпийские игры. Лыжное двоеборье. Мужчины. Трамплин К-95 + гонка 10 км. В команде по лыжному двоеборью наша страна выставила четырех спортсменов: Евгения Климова, Нияза Набеева, Ивана Панина и Эрнеста Яхина. К сожалению, на данный момент ни один из парней не может похвастаться высокими наградами и титулами, эксперты предсказывают им борьбу за места в первой двадцатке.
Ведущие: Л. Народицкий
Продолжительность: 01:10:42 + 00:51:17
Видеокодек: XVID
Качество видео: HDTVRip
Битрейт видео: ~1900 kb/s
Размер кадра: 704 x 400
Аудиокодек: MP3, 2.0ch.
Битрейт аудио: 128 kb/s

MediaInfo:

Формат : AVI
Формат/Информация : Audio Video Interleave
Профиль формата : OpenDML
Размер файла : 1,01 Гбайт
Продолжительность : 1 ч. 10 м.
Общий поток : 2045 Кбит/сек
Программа кодирования : XviD4PSP 6.0 / 54.29.105
Видео
Идентификатор : 1
Формат : MPEG-4 Visual
Профиль формата : Advanced [email protected]
Параметр BVOP формата : 2
Параметр QPel формата : Нет
Параметр GMC формата : Без точки перехода
Параметр матрицы формата : Default (H.263)
Идентификатор кодека : XVID
Идентификатор кодека/Подсказка : XviD
Продолжительность : 1 ч. 10 м.
Битрейт : 1900 Кбит/сек
Ширина : 704 пикселя
Высота : 400 пикселей
Соотношение сторон : 16:9
Частота кадров : 25,000 кадров/сек
Цветовое пространство : YUV
Субдискретизация насыщенности : 4:2:0
Битовая глубина : 8 бит
Тип развёртки : Прогрессивная
Метод сжатия : С потерями
Бит/(Пиксели*Кадры) : 0.270
Размер потока : 961 Мбайт (93%)
Библиотека кодирования : XviD 64
Аудио
Идентификатор : 0
Формат : MPEG Audio
Версия формата : Version 1
Профиль формата : Layer 3
Режим : Joint stereo
Расширение режима : MS Stereo
Идентификатор кодека : 55
Идентификатор кодека/Подсказка : MP3
Продолжительность : 1 ч. 10 м.
Вид битрейта : Постоянный
Битрейт : 128 Кбит/сек
Каналы : 2 канала
Частота : 48,0 КГц
Метод сжатия : С потерями
Размер потока : 64,7 Мбайт (6%)
Выравнивание : Соединение по промежуткам
Продолжительность промежутка : 40 мс. (1,00 видеокадр)
Формат : AVI
Формат/Информация : Audio Video Interleave
Размер файла : 749 Мбайт
Продолжительность : 51 м.
Общий поток : 2040 Кбит/сек
Программа кодирования : XviD4PSP 6.0 / 54.29.105
Видео
Идентификатор : 1
Формат : MPEG-4 Visual
Профиль формата : Advanced [email protected]
Параметр BVOP формата : 2
Параметр QPel формата : Нет
Параметр GMC формата : Без точки перехода
Параметр матрицы формата : Default (H.263)
Идентификатор кодека : XVID
Идентификатор кодека/Подсказка : XviD
Продолжительность : 51 м.
Битрейт : 1899 Кбит/сек
Ширина : 704 пикселя
Высота : 400 пикселей
Соотношение сторон : 16:9
Частота кадров : 25,000 кадров/сек
Цветовое пространство : YUV
Субдискретизация насыщенности : 4:2:0
Битовая глубина : 8 бит
Тип развёртки : Прогрессивная
Метод сжатия : С потерями
Бит/(Пиксели*Кадры) : 0.270
Размер потока : 697 Мбайт (93%)
Библиотека кодирования : XviD 64
Аудио
Идентификатор : 0
Формат : MPEG Audio
Версия формата : Version 1
Профиль формата : Layer 3
Режим : Joint stereo
Расширение режима : MS Stereo
Идентификатор кодека : 55
Идентификатор кодека/Подсказка : MP3
Продолжительность : 51 м.
Вид битрейта : Постоянный
Битрейт : 128 Кбит/сек
Каналы : 2 канала
Частота : 48,0 КГц
Метод сжатия : С потерями
Размер потока : 47,0 Мбайт (6%)
Выравнивание : Соединение по промежуткам
Продолжительность промежутка : 40 мс. (1,00 видеокадр)
Библиотека кодирования : LAME3.99.4
Скриншоты:
Яндекс.Метрика
Рейтинг@Mail.ru