[ Сегодня на трекере фрилич! Идет свободное скачивание без начисления Download ]

XXII Зимние Олимпийские Игры Сочи 2014 / Горные лыжи, Скоростной спуск / Мужчины (ТВ канал - Россия 2) [09.02.2014 г., SATRip, AVI, RU]

 

Создавать темы 13-Фев-2014 15:48

XXII Зимние Олимпийские Игры Сочи 2014 / Горные лыжи, Скоростной спуск / МужчиныЖаркие. Зимние. Твои.Официальный сайт "Сочи 2014" -Год выпуска: 09.02.2014 г.
Вид спорта: Горные лыжи, Скоростной спуск
Продолжительность: 02:04:21
Комментатор: Тарас Тимошенко
Язык комментариев: русский
Автор рипа / записи: sanchez2011-ТВ Канал: -Качество видео: SATRip
Контейнер: AVI
Видео кодек: XviD
Аудио кодек: MP3
Видео: 720x448 (1.61:1), 25 fps, XviD build 64 ~1694 kbps avg, 0.21 bit/pixel
Аудио: 48 kHz, MPEG Layer 3, 2 ch, ~128.00 kbps avg
[url=http://pirat.ca/viewtopic.php?t=126752][/url]Горные лыжи. Расписание и результаты. Скачать.

Составы команд

Media Info

Общее
Формат : AVI
Формат/Информация : Audio Video Interleave
Размер файла : 1,59 Гбайт
Продолжительность : 2 ч. 4 м.
Общий поток : 1832 Кбит/сек
Программа кодирования : VirtualDubMod 1.5.10.2 (build 2540/release)
Библиотека кодирования : VirtualDubMod build 2540/release
Видео
Идентификатор : 0
Формат : MPEG-4 Visual
Профиль формата : Advanced [email protected]
Параметр BVOP формата : 2
Параметр QPel формата : Нет
Параметр GMC формата : Без точки перехода
Параметр матрицы формата : Default (H.263)
Идентификатор кодека : XVID
Идентификатор кодека/Подсказка : XviD
Продолжительность : 2 ч. 4 м.
Битрейт : 1694 Кбит/сек
Ширина : 720 пикселей
Высота : 448 пикселей
Соотношение сторон : 16:10
Частота кадров : 25,000 кадров/сек
Цветовое пространство : YUV
Субдискретизация насыщенности : 4:2:0
Битовая глубина : 8 бит
Тип развёртки : Прогрессивная
Метод сжатия : С потерями
Бит/(Пиксели*Кадры) : 0.210
Размер потока : 1,47 Гбайт (92%)
Библиотека кодирования : XviD 64
Аудио
Идентификатор : 1
Формат : MPEG Audio
Версия формата : Version 1
Профиль формата : Layer 3
Режим : Joint stereo
Расширение режима : MS Stereo
Идентификатор кодека : 55
Идентификатор кодека/Подсказка : MP3
Продолжительность : 2 ч. 4 м.
Вид битрейта : Постоянный
Битрейт : 128 Кбит/сек
Каналы : 2 канала
Частота : 48,0 КГц
Метод сжатия : С потерями
Размер потока : 114 Мбайт (7%)
Выравнивание : Соединение по промежуткам
Продолжительность промежутка : 40 мс. (1,00 видеокадр)
Время предзагрузки промежутка : 504 мс.
Библиотека кодирования : LAME3.100Є

Скриншоты

-
Яндекс.Метрика
Рейтинг@Mail.ru