Родители лёгкого поведения / Drunk Parents (Фред Вульф / Fred Wolf) [2019 г., комедия, BDRip-AVC, 720p] Dub Sub (Eng)

 

Post 12-Jun-2019 10:03

-Родители лёгкого поведения / Drunk Parents-- Производство: США
Год выпуска: 2019 г.
Жанр: комедия
Продолжительность: 01:37:06
Мировая премьера: 27.12.2018
Российская премьера: 07.03.2019
Перевод: Профессиональный (полное дублирование) [Лицензия R5]
Режиссёр: Фред Вульф / Fred Wolf-В ролях: Сальма Хайек, Алек Болдуин, Джо Манганьелло, Джим Гэффиган, Трит Уильямс, Мишель Вентимилла, Наталья Сиглиути, Колин Куинн, Эдди Швайгхардт-Описание: Семейная пара Фрэнк и Нэнси пытаются скрыть от друзей и дочери свой полный финансовый крах. Для этого они идут на всё, даже сдают в аренду чужой особняк. Но получится ли у двух горе-авантюристов провернуть свои невероятные махинации? Ведь каждый их шаг — отличный повод откупорить новую бутылку…-
Качество видео: BDRip-AVC
Контейнер: MKV
Стандарт разрешения: 720p
Видео кодек: MPEG4 AVC
Аудио кодек: AC3
Видео: 1024x552, 2000 kbps, 23.976 fps
Аудио: 448 kb/s, 6 ch, 48.0 kHz
Аудио #2: 448 kb/s, 6 ch, 48.0 kHz
Cубтитры: английские
Формат субтитров: softsub (SSA/ASS)

МИ

General
Unique ID : 224229780816231721504324634990524127777 (0xA8B115BDF489B072A785A204205A5A21)
Complete name : D:\Для сохранения с винта\ФИЛЬМЫ\Drunk.Parents.2019.BDRip-AVC.ExKinoRay.mkv
Format : Matroska
Format version : Version 2
File size : 1.96 GiB
Duration : 1 h 37 min
Overall bit rate : 2 895 kb/s
Encoded date : UTC 2019-06-06 13:49:42
Writing application : mkvmerge v7.8.0 ('River Man') 32bit built on Apr 3 2015 12:11:22
Writing library : libebml v1.3.1 + libmatroska v1.4.2
Video
ID : 1
Format : AVC
Format/Info : Advanced Video Codec
Format profile : [email protected]
Format settings : CABAC / 12 Ref Frames
Format settings, CABAC : Yes
Format settings, ReFrames : 12 frames
Codec ID : V_MPEG4/ISO/AVC
Duration : 1 h 37 min
Bit rate : 2 000 kb/s
Width : 1 024 pixels
Height : 552 pixels
Display aspect ratio : 1.85:1
Frame rate mode : Constant
Frame rate : 23.976 (24000/1001) FPS
Color space : YUV
Chroma subsampling : 4:2:0
Bit depth : 8 bits
Scan type : Progressive
Bits/(Pixel*Frame) : 0.148
Stream size : 1.32 GiB (67%)
Writing library : x264 core 152 r2851 ba24899
Audio #1
ID : 2
Format : AC-3
Format/Info : Audio Coding 3
Codec ID : A_AC3
Duration : 1 h 37 min
Bit rate mode : Constant
Bit rate : 448 kb/s
Channel(s) : 6 channels
Channel positions : Front: L C R, Side: L R, LFE
Sampling rate : 48.0 kHz
Frame rate : 31.250 FPS (1536 SPF)
Bit depth : 16 bits
Compression mode : Lossy
Stream size : 311 MiB (15%)
Service kind : Complete Main
Default : Yes
Forced : No
Audio #2
ID : 3
Format : AC-3
Format/Info : Audio Coding 3
Codec ID : A_AC3
Duration : 1 h 37 min
Bit rate mode : Constant
Bit rate : 448 kb/s
Channel(s) : 6 channels
Channel positions : Front: L C R, Side: L R, LFE
Sampling rate : 48.0 kHz
Frame rate : 31.250 FPS (1536 SPF)
Bit depth : 16 bits
Compression mode : Lossy
Stream size : 311 MiB (15%)
Language : English
Service kind : Complete Main
Default : No
Forced : No
Text #1
ID : 4
Format : UTF-8
Codec ID : S_TEXT/UTF8
Codec ID/Info : UTF-8 Plain Text
Title : Full
Language : English
Default : No
Forced : No
Text #2
ID : 5
Format : UTF-8
Codec ID : S_TEXT/UTF8
Codec ID/Info : UTF-8 Plain Text
Title : SDH
Language : English
Default : No
Forced : No

Скриншот c названием фильма

Скриншоты

--Рекламы нет!--
Рейтинг@Mail.ru