Американские животные / American Animals (Барт Лэйтон / Bart Layton) [2018 г., триллер, криминал, BDRip, 1080p] MVO (СВ Студия) + Original (Eng) + Sub (Rus)

 

Post 12-Jun-2019 08:01

-Американские животные / American Animals-- Производство: Великобритания, США
Год выпуска: 2018 г.
Жанр: триллер, криминал
Продолжительность: 01:56:53
Мировая премьера: 19 января 2018
Перевод: Профессиональный (многоголосый, закадровый) [СВ Студия]
Оригинальный аудиопоток: английский
Режиссёр: Барт Лэйтон / Bart Layton-В ролях: Барри Кеоган, Эван Питерс, Джаред Абрахамсон, Блейк Дженнер, Эдди Кинг-Описание: История четырех молодых людей, которые предпринимают одно из самых дерзких ограблений в истории США. Они планируют украсть одну из самых дорогих книг в мире — «Птицы Америки» Джона Джеймса Одюбона.-
Качество видео: BDRip 1080p
Контейнер: MKV
Видео кодек: MPEG4 AVC
Аудио кодек: AC3
Видео: AVC/H.264, 1920x816, ~12200 kbps
Аудио #1: AC3, 6 ch, 640 kbps | Русский
Аудио #2: AC3, 6 ch, 640 kbps | Английский
Cубтитры: русские, английские
Формат субтитров: softsub (SRT)

МИ

General
Unique ID : 131491439112397934884704898796624648151 (0x62EC547AFE087724AB8B173AB57997D7)
Complete name : American.Animals.2018.1080p.BluRay.Rus.Eng.mkv
Format : Matroska
Format version : Version 4 / Version 2
File size : 11.0 GiB
Duration : 1 h 56 min
Overall bit rate : 13.5 Mb/s
Movie name : American Animals (2018)
Encoded date : UTC 2019-06-10 11:44:45
Writing application : mkvmerge v27.0.0 ('Metropolis') 32-bit
Writing library : libebml v1.3.6 + libmatroska v1.4.9
Cover : Yes
Attachments : cover_land.jpg
Video
ID : 1
Format : AVC
Format/Info : Advanced Video Codec
Format profile : [email protected]
Format settings : CABAC / 5 Ref Frames
Format settings, CABAC : Yes
Format settings, ReFrames : 5 frames
Codec ID : V_MPEG4/ISO/AVC
Duration : 1 h 56 min
Bit rate : 12.2 Mb/s
Width : 1 920 pixels
Height : 816 pixels
Display aspect ratio : 2.35:1
Frame rate mode : Constant
Frame rate : 23.976 (24000/1001) FPS
Color space : YUV
Chroma subsampling : 4:2:0
Bit depth : 8 bits
Scan type : Progressive
Bits/(Pixel*Frame) : 0.324
Stream size : 9.95 GiB (90%)
Writing library : x264 core 157 r2867+103 0d6443f t_mod_Custom_2 [[email protected] X86_64]
Encoding settings : cabac=1 / ref=5 / deblock=1:-3:-3 / analyse=0x3:0x133 / me=umh / subme=10 / psy=1 / fade_compensate=0.00 / psy_rd=1.00:0.00 / mixed_ref=1 / me_range=32 / chroma_me=1 / trellis=2 / 8x8dct=1 / cqm=0 / deadzone=21,11 / fast_pskip=0 / chroma_qp_offset=-2 / threads=24 / lookahead_threads=6 / sliced_threads=0 / nr=0 / decimate=0 / interlaced=0 / bluray_compat=0 / constrained_intra=0 / fgo=0 / bframes=10 / b_pyramid=2 / b_adapt=2 / b_bias=0 / direct=3 / weightb=1 / open_gop=0 / weightp=2 / keyint=250 / keyint_min=23 / scenecut=40 / intra_refresh=0 / rc_lookahead=60 / rc=crf / mbtree=0 / crf=15.6000 / qcomp=0.60 / qpmin=0:0:0 / qpmax=69:69:69 / qpstep=4 / vbv_maxrate=62500 / vbv_bufsize=78125 / crf_max=0.0 / nal_hrd=none / filler=0 / ip_ratio=1.30 / pb_ratio=1.20 / aq=3:0.80 / aq-sensitivity=10.00 / aq-factor=1.00:1.00:1.00 / aq2=0 / aq3=0 / zones=372,406,crf=14/831,950,crf=15
Default : Yes
Forced : No
Color range : Limited
Matrix coefficients : BT.709
Audio #1
ID : 2
Format : AC-3
Format/Info : Audio Coding 3
Codec ID : A_AC3
Duration : 1 h 56 min
Bit rate mode : Constant
Bit rate : 640 kb/s
Channel(s) : 6 channels
Channel positions : Front: L C R, Side: L R, LFE
Sampling rate : 48.0 kHz
Frame rate : 31.250 FPS (1536 SPF)
Bit depth : 16 bits
Compression mode : Lossy
Stream size : 535 MiB (5%)
Language : Russian
Service kind : Complete Main
Default : Yes
Forced : No
Audio #2
ID : 3
Format : AC-3
Format/Info : Audio Coding 3
Codec ID : A_AC3
Duration : 1 h 56 min
Bit rate mode : Constant
Bit rate : 640 kb/s
Channel(s) : 6 channels
Channel positions : Front: L C R, Side: L R, LFE
Sampling rate : 48.0 kHz
Frame rate : 31.250 FPS (1536 SPF)
Bit depth : 16 bits
Compression mode : Lossy
Stream size : 535 MiB (5%)
Language : English
Service kind : Complete Main
Default : No
Forced : No
Text #1
ID : 4
Format : UTF-8
Codec ID : S_TEXT/UTF8
Codec ID/Info : UTF-8 Plain Text
Duration : 1 h 51 min
Bit rate : 64 b/s
Count of elements : 1507
Stream size : 53.0 KiB (0%)
Language : English
Default : No
Forced : No
Text #2
ID : 5
Format : UTF-8
Codec ID : S_TEXT/UTF8
Codec ID/Info : UTF-8 Plain Text
Duration : 1 h 56 min
Bit rate : 68 b/s
Count of elements : 1663
Stream size : 58.1 KiB (0%)
Title : SDH
Language : English
Default : No
Forced : No
Menu
00:00:00.000 : en:Chapter 1
00:06:57.584 : en:Chapter 2
00:14:58.856 : en:Chapter 3
00:21:21.947 : en:Chapter 4
00:27:23.809 : en:Chapter 5
00:36:22.806 : en:Chapter 6
00:41:42.124 : en:Chapter 7
00:48:53.305 : en:Chapter 8
00:54:59.296 : en:Chapter 9
01:04:23.067 : en:Chapter 10
01:11:11.767 : en:Chapter 11
01:16:28.375 : en:Chapter 12
01:24:47.707 : en:Chapter 13
01:30:18.997 : en:Chapter 14
01:37:15.788 : en:Chapter 15
01:45:36.455 : en:Chapter 16

Скриншот c названием фильма

Скриншоты

Рейтинг@Mail.ru