[ Сегодня на трекере фрилич! Идет свободное скачивание без начисления Download ]

Выдача багажа / Baggage Claim (Дэвид Е. Талберт / David E. Talbert) [2013 г., комедия, HDRip] MVO [Лицензия]

 

Создавать темы 12-Фев-2014 18:01

-Выдача багажа / Baggage Claim--
Производство: США / Sneak Preview Productions
Год выпуска: 2013 г.
Жанр: комедия
Продолжительность: 01:36:30
Мировая премьера: 27 сентября 2013
Перевод: Профессиональный многоголосый
Режиссер: Дэвид Е. Талберт / David E. Talbert-В ролях:
Пола Пэттон, Дерек Люк, Тэй Диггз, Борис Коджо, Трей Сонгз, Джилл Скотт, Адам Броди, Дженифер Льюис, Джимон Хонсу, Лорен Лондон-Описание:
Пообещав не стать самой старшей незамужней женщиной в своей семье, Монтана отправляется на тридцатидневную экспедицию, чтобы очаровать потенциальных женихов.
-Качество видео: HDRip
Контейнер: AVI
Видео кодек: XviD
Аудио кодек: AC3
Видео: 720x384; 1635 kbps; 23.976 fps; 0.247 Bit/Pixel
Аудио: 384 Kbps; 6 ch; 48.0 KHz

Media Info

E:\Torrents!!!!!!!!!!!!!!!!!!!!!\Vydacha.bagazha.2013.P.HDRip.1400Mb.avi
General
Complete name : E:\Torrents!!!!!!!!!!!!!!!!!!!!!\Vydacha.bagazha.2013.P.HDRip.1400Mb.avi
Format : AVI
Format/Info : Audio Video Interleave
File size : 1.37 GiB
Duration : 1h 36mn
Overall bit rate : 2 028 Kbps
Writing application : VirtualDubMod 1.5.10.3 | www.virtualdub-fr.org || (build 2550/release)
Writing library : VirtualDubMod build 2550/release
Video #0
ID : 0
Format : MPEG-4 Visual
Format profile : Advanced [email protected]
Format settings, BVOP : 1
Format settings, QPel : No
Format settings, GMC : No warppoints
Format settings, Matrix : Custom
Codec ID : XVID
Codec ID/Hint : XviD
Duration : 1h 36mn
Bit rate : 1 635 Kbps
Width : 720 pixels
Height : 384 pixels
Display aspect ratio : 1.85:1
Frame rate : 23.976 fps
Color space : YUV
Chroma subsampling : 4:2:0
Bit depth : 8 bits
Scan type : Progressive
Compression mode : Lossy
Bits/(Pixel*Frame) : 0.247
Stream size : 1.10 GiB (81%)
Writing library : XviD 1.2.1 (UTC 2008-12-04)
Audio #1
ID : 1
Format : AC-3
Format/Info : Audio Coding 3
Mode extension : CM (complete main)
Format settings, Endianness : Big
Codec ID : 2000
Duration : 1h 36mn
Bit rate mode : Constant
Bit rate : 384 Kbps
Channel(s) : 6 channels
Channel positions : Front: L C R, Side: L R, LFE
Sampling rate : 48.0 KHz
Bit depth : 16 bits
Compression mode : Lossy
Stream size : 265 MiB (19%)
Alignment : Split accross interleaves
Interleave, duration : 42 ms (1.00 video frame)
Interleave, preload duration : 500 ms
Яндекс.Метрика
Рейтинг@Mail.ru