Мини-Маппеты / Muppet Babies (Гай Мур, Дэвид Бас, Чхве Юн-сок, ...) [2018, Детский, Комедия, Музыкальный, Фентези, SATRip] (Сезон 1, Серий 20 из 20)

 

Post 09-Jun-2019 18:52

Мини-Маппеты / Muppet Babies (Сезон 1, Серий 20 из 20) - Производство: Корея Южная, США, Китай, Япония
Жанр: Детский, Комедия, Музыкальный, Фентези
Описание:
В центре сюжета — приключения находчивого Кермита, веселого Фоззи, прелестной Мисс Пигги, непоседливого Животного, бесстрашного Гонзо и их новой подружки — пингвина Саммер. Неразлучная компания малышей все свободное время проводит во дворе или в игровой комнате, но это не мешает друзьям каждый день совершать невероятные путешествия, используя силу собственного воображения. В каждом эпизоде нового проекта юные Маппеты не только веселятся, поют и играют, но и учатся творчески подходить к решению разнообразных задач и справляться с собственными страхами.

Возраст: 0+ (для любой зрительской аудитории)
Рейтинг MPAA: G (нет возрастных ограничений)
Дата мировой премьеры: 23 марта 2018
Дата российской премьеры: 1 сентября 2018
Продолжительность: ~00:11:31 серия
Качество видео: SATRip
Перевод: Полный дубляж, вкл. песни
Субтитры: отсутствуют
Видео: Xvid, 704x400, ~1 200 kbps
Аудио: MP3, 2 ch, 192 kbps

Mediainfo:

General
Complete name : \Узнавайка\Мини-Маппеты\01a Сер Кермит отважный.avi
Format : AVI
Format/Info : Audio Video Interleave
File size : 115 MiB
Duration : 11 min 31 s
Overall bit rate : 1 392 kb/s
Writing library : VirtualDub build 40463/release
Video
ID : 0
Format : MPEG-4 Visual
Format profile : Advanced [email protected]
Format settings : BVOP2
Format settings, BVOP : 2
Format settings, QPel : No
Format settings, GMC : No warppoints
Format settings, Matrix : Default (H.263)
Muxing mode : Packed bitstream
Codec ID : XVID
Codec ID/Hint : XviD
Duration : 11 min 31 s
Bit rate : 1 191 kb/s
Width : 704 pixels
Height : 400 pixels
Display aspect ratio : 16:9
Frame rate : 25.000 FPS
Color space : YUV
Chroma subsampling : 4:2:0
Bit depth : 8 bits
Scan type : Progressive
Compression mode : Lossy
Bits/(Pixel*Frame) : 0.169
Stream size : 98.1 MiB (86%)
Writing library : XviD 67
Audio
ID : 1
Format : MPEG Audio
Format version : Version 1
Format profile : Layer 3
Format settings : Joint stereo
Codec ID : 55
Codec ID/Hint : MP3
Duration : 11 min 31 s
Bit rate mode : Constant
Bit rate : 192 kb/s
Channel(s) : 2 channels
Sampling rate : 48.0 kHz
Compression mode : Lossy
Stream size : 15.8 MiB (14%)
Alignment : Split accross interleaves
Interleave, duration : 40 ms (1.00 video frame)
Interleave, preload duratio : 500 ms

Список серий:

01a Сер Кермит отважный.avi
01b Животное управляет самолётом.avi
02a Супер красотка против капитана льдинки.avi
02b Пигги и машина времени.avi
03a Великий спортафон Маппетов.avi
03b Для вас картошка для меня лучший друг.avi
04a Кепкастрофа.avi
04b Полёт на юг.avi
05a Как Кермит научился танцевать.avi
05b Одна маленькая проблема.avi
06a Пираты с детской площадки.avi
06b Замок из одеял.avi
07a Пингвин саммер-детектив.avi
07b Ты - как с картинки.avi
08a Кермит переходит на новый уровень.avi
08b Лягушки всё разные.avi
09a Животное моется.avi
09b Ресторан-пиццерия Лучшие друзья.avi
10a Хороший плохой и зелёный.avi
10b Рок Маппетов.avi
11a День вверх тормашками.avi
11b Зуб и последствия.avi
12a Гран-при великого гонзо.avi
12b Животное конг.avi
13a Бансен знает всё.avi
13b Доктор фоззи.avi
14a Смешной Хэллоувака.avi
14b Леденящая кровь история о ПРОКЛЯТЫХ БЛИНЧИКАХ.avi
15a Большое шоу кермита.avi
15b Коралловая акула.avi
16a Лагерь для дедушек.avi
16b Разделение участка.avi
17a Особое рождество мини-мапетов.avi
17b Супер роскошный праздничный сюрприз для саммер.avi
18a Великая Саммер.avi
18b Планета гонзо.avi
19a Лучший-лучший друг.avi
19b Считая кермитов.avi
20a Щенок на один день.avi
20b Нет ничего смешного.avi
Bonus1.avi
Bonus2.avi
Bonus3.avi
Bonus4.avi
Bonus5.avi
Bonus6.avi
Bonus7.avi
Bonus8.avi
Скриншоты:
Рейтинг@Mail.ru