Каннибал / Caníbal (Мануэль Мартин Куенка / Manuel Martín Cuenca) [2013 г., триллер, HDRip] VO [datynet]

 

Создавать темы 12-Фев-2014 01:59

--Каннибал / Caníbal--«El amor es insaciable»-- Производство: Испания, Румыния, Россия, Франция
Год выпуска: 2013 г.
Жанр: триллер
Продолжительность: 01:57:05--Мировая премьера: 6 сентября 2013--Перевод: Любительский (одноголосый закадровый) [datynet]--Режиссер: Мануэль Мартин Куенка / Manuel Martín Cuenca--В ролях: Антонио де ла Торре, Олимпия Мелинте, Маноло Соло, Мария Альфонса Россо, Дэльфин Темпелс, Иоланда Серрано, Хоакин Нуньес, Грегори Броссар--Описание: Карлос — самый престижный и уважаемый портной в городке Гранада, что находится в Испании. А еще он убийца, хорошо скрывающий свою порочную страсть. А еще он каннибал… Он не чувствует никакого раскаяния, ни вины, заманивая и убивая женщин, пока не встречает Нину, пробудившую в нем новые чувства. Что победит: тяга к убийству или любовь?..--Качество видео: HDRip
Контейнер: AVI
Видео кодек: XviD
Аудио кодек: MP3
Видео: 720x304 (2.37:1), 24.000 fps, XviD build 73 ~1587 kbps avg, 0.30 bit/pixel
Аудио: 44.100 kHz, MPEG Layer 3, 2 ch, ~192.00 kbps avg
Cубтитры: Отсутствуют

Media Info

Общее
Полное имя : H:\Torrent2\Cannibal.2013.L1.HDRip.1.46GB_[pirat.ca].avi
Формат : AVI
Формат/Информация : Audio Video Interleave
Размер файла : 1,46 Гбайт
Продолжительность : 1 ч. 57 м.
Общий поток : 1789 Кбит/сек
Программа кодирования : VirtualDubMod 1.5.10.3 | www.virtualdub-fr.org || (build 2550/release)
Библиотека кодирования : VirtualDubMod build 2550/release
Видео
Идентификатор : 0
Формат : MPEG-4 Visual
Профиль формата : Advanced [email protected]
Параметр BVOP формата : 2
Параметр QPel формата : Нет
Параметр GMC формата : Без точки перехода
Параметр матрицы формата : Выборочная
Идентификатор кодека : XVID
Идентификатор кодека/Подсказка : XviD
Продолжительность : 1 ч. 57 м.
Битрейт : 1588 Кбит/сек
Ширина : 720 пикселей
Высота : 304 пикселя
Соотношение сторон : 2,35:1
Частота кадров : 24,000 кадра/сек
Цветовое пространство : YUV
Субдискретизация насыщенности : 4:2:0
Битовая глубина : 8 бит
Тип развёртки : Прогрессивная
Метод сжатия : С потерями
Бит/(Пиксели*Кадры) : 0.302
Размер потока : 1,30 Гбайт (89%)
Библиотека кодирования : XviD 73
Аудио
Идентификатор : 1
Формат : MPEG Audio
Версия формата : Version 1
Профиль формата : Layer 3
Идентификатор кодека : 55
Идентификатор кодека/Подсказка : MP3
Продолжительность : 1 ч. 57 м.
Вид битрейта : Постоянный
Битрейт : 192 Кбит/сек
Каналы : 2 канала
Частота : 44,1 КГц
Метод сжатия : С потерями
Размер потока : 161 Мбайт (11%)
Выравнивание : Разделение по промежуткам
Продолжительность промежутка : 42 мс. (1,00 видеокадр)
Время предзагрузки промежутка : 500 мс.

Скриншоты

Трейлер
Яндекс.Метрика
Рейтинг@Mail.ru