[ Сегодня на трекере фрилич! Идет свободное скачивание без начисления Download ]

Секретные территории. Космические хищники / (Эфир от 24.01.2014) (РенТВ) [2014 г., документальный, SATRip]

 

Создавать темы 11-Фев-2014 22:01

-Секретные территории. Космические хищники-- Производство: Россия
Жанр: документальный
Год выпуска: 2014 г.
Продолжительность: 00:45:00
Перевод: Не требуется
Оригинальный аудиопоток: русский
Режиссер: РенТВ-Описание: Что делает Землю лакомым кусочком для представителей иных миров? Обилие воды, богатый животный мир, полезные ископаемые... А человечество? Всего лишь досадная помеха на пути к богатствам... Сможем ли мы противостоять угрозе хищников из Вселенной или в ближайшем будущем землян ждет полное истребление?-Качество видео: SATRip
Контейнер: AVI
Видео кодек: DivX
Аудио кодек: MP3
Видео: 720x400 (1.80:1), 25 fps, DivX Codec 5.x or 6.x ~1499 kbps avg, 0.21 bit/pixel
Аудио: 48 kHz, MPEG Layer 3, 2 ch, ~128.00 kbps avg
Cубтитры: отсутствуют

Media Info

General
Complete name : D:\Sekretnye.territorii.2014.01.24.SATRip.avi
Format : AVI
Format/Info : Audio Video Interleave
File size : 556 MiB
Duration : 47mn 27s
Overall bit rate : 1 638 Kbps
Writing application : VirtualDubModRus 1.5.10.2 (build 2540/release)
Writing library : VirtualDubMod build 2540/release
Video
ID : 0
Format : MPEG-4 Visual
Format settings, BVOP : 1
Format settings, QPel : No
Format settings, GMC : No warppoints
Format settings, Matrix : Default (H.263)
Muxing mode : Packed bitstream
Codec ID : DX50
Codec ID/Hint : DivX 5
Duration : 47mn 27s
Bit rate : 1 500 Kbps
Width : 720 pixels
Height : 400 pixels
Display aspect ratio : 16:9
Frame rate : 25.000 fps
Color space : YUV
Chroma subsampling : 4:2:0
Bit depth : 8 bits
Scan type : Progressive
Compression mode : Lossy
Bits/(Pixel*Frame) : 0.208
Stream size : 509 MiB (92%)
Writing library : DivX 3013
Audio
ID : 1
Format : MPEG Audio
Format version : Version 1
Format profile : Layer 3
Codec ID : 55
Codec ID/Hint : MP3
Duration : 47mn 27s
Bit rate mode : Constant
Bit rate : 128 Kbps
Channel count : 2 channels
Sampling rate : 48.0 KHz
Compression mode : Lossy
Stream size : 43.5 MiB (8%)
Alignment : Split accross interleaves
Interleave, duration : 40 ms (1.00 video frame)
Interleave, preload duration : 500 ms

Скриншот c названием фильма

Скриншоты

Яндекс.Метрика
Рейтинг@Mail.ru