[ Сегодня на трекере фрилич! Идет свободное скачивание без начисления Download ]

Военная тайна с Игорем Прокопенко / [Эфир от 10.02.2014] (Фёдор Калугин) [2014 г., документальный, SATRip]

 

Создавать темы 11-Фев-2014 21:59

-Военная тайна с Игорем Прокопенко-- Производство: Россия
Жанр: документальный
Год выпуска: 2014 г.
Продолжительность: 02:23:31
Перевод: Не требуется
Оригинальный аудиопоток: русский
Режиссер: Фёдор Калугин-Описание: "Военная тайна" — одна из старейших программ на нашем канале, которая имеет очень устойчивую аудиторию и которой нет аналогов на отечественном телевидении. Её содержание полностью соответствует интригующему названию: своими секретами с ведущим и корреспондентами программы делятся военные и политики, разведчики, шпионы и диверсанты, террористы и сотрудники спецслужб.
Визитная карточка программы — это эксклюзивная информация, уникальные документы и видеосъемка. Объект исследования парадоксальные события, оставившие след в нашей истории, а также тайные пружины, которые подчас приводят в действие механизм обеспечения безопасности государства.
В выпуске:
- ГУЛАГ. Родом из демократии. Почему прибалтийцы загоняют в гетто русскоязычное население и почему в просвещённом евросоюзе все об этом молчат;
- Осторожно! Блондинки в чулках надевают погоны. Почему министрами обороны в армиях НАТО вместо мужчин становятся джазовые певицы, многодетные матери и врачи-гинекологи;
- Наше всё и главный символ России. За что Пушкина обожали все гламурные барышни XV столетия, и за что его недолюбливала сварливая тёща. Почему ещё при жизни Пушкин стал бешено популярен;
- Под прицелом. Почему российские школьники начали стрелять в учителей и почему американские школьники ведут на них настоящую охоту;
- Пропаганда по заказу Белого Дома. Почему многие американцы уверены, что русские на работу ходят с автоматом Калашникова, а по Красной площади гуляют медведи;
- Танковая арена. Всё о супероружии, созданном для российских солдат;
- Последняя исповедь японского камикадзе. Почему так долго звучало эхо страшной войны.-Качество видео: SATRip
Контейнер: AVI
Видео кодек: XviD
Аудио кодек: MP3
Видео: 720x400 (1.80:1), 25 fps, XviD MPEG-4 ~1494 kbps avg, 0.21 bit/pixel
Аудио: 48 kHz, MPEG Layer 3, 2 ch, ~128.00 kbps avg
Cубтитры: отсутствуют

Media Info

General
Complete name : D:\Voennaja.tajna.10.02.2014.SATRip.avi
Format : AVI
Format/Info : Audio Video Interleave
File size : 1.64 GiB
Duration : 2h 23mn
Overall bit rate : 1 633 Kbps
Writing application : VirtualDubMod 1.5.10.2 (build 2540/release)
Writing library : VirtualDubMod build 2540/release
Video
ID : 0
Format : MPEG-4 Visual
Format profile : Advanced [email protected]
Format settings, BVOP : 2
Format settings, QPel : No
Format settings, GMC : No warppoints
Format settings, Matrix : Default (MPEG)
Muxing mode : Packed bitstream
Codec ID : XVID
Codec ID/Hint : XviD
Duration : 2h 23mn
Bit rate : 1 495 Kbps
Width : 720 pixels
Height : 400 pixels
Display aspect ratio : 16:9
Frame rate : 25.000 fps
Color space : YUV
Chroma subsampling : 4:2:0
Bit depth : 8 bits
Scan type : Progressive
Compression mode : Lossy
Bits/(Pixel*Frame) : 0.208
Stream size : 1.50 GiB (92%)
Writing library : XviD 64
Audio
ID : 1
Format : MPEG Audio
Format version : Version 1
Format profile : Layer 3
Mode : Joint stereo
Codec ID : 55
Codec ID/Hint : MP3
Duration : 2h 23mn
Bit rate mode : Constant
Bit rate : 128 Kbps
Channel count : 2 channels
Sampling rate : 48.0 KHz
Compression mode : Lossy
Stream size : 131 MiB (8%)
Alignment : Aligned on interleaves
Interleave, duration : 40 ms (1.00 video frame)
Interleave, preload duration : 504 ms

Скриншот c названием фильма

Скриншоты

Яндекс.Метрика
Рейтинг@Mail.ru