[ Сегодня на трекере фрилич! Идет свободное скачивание без начисления Download ]

Поиск пришельцев. Странные огни и похищение / Uncovering Aliens. Strange lights and abduction / (Жиль Левелин Томас, Феликс Блэк) [2014 г., Документальный, научно-познавательный, SATRip] VO

 

Создавать темы 11-Фев-2014 21:57

-Поиск пришельцев. Странные огни и похищение / Uncovering Aliens. Strange lights and abduction-- Производство: США
Жанр: Документальный, научно-познавательный
Год выпуска: 2014 г.
Продолжительность: 00:43:57
Перевод: Профессиональный (одноголосый, закадровый)
Оригинальный аудиопоток: английский
Режиссер: Жиль Левелин Томас, Феликс Блэк-В ролях: Деррел Симс, Майкл Бара, Морин Элсберри, Стивен Джонс-Описание: 2,9 млн. американцев сообщило о признаках похищения пришельцами. Команда опытных специалистов идет по следам самых шокирующих случаев.-Качество видео: SATRip
Контейнер: AVI
Видео кодек: XviD
Аудио кодек: MP3
Видео: 704x400 (1.76:1), 25 fps, XviD build 50 ~1000 kbps avg, 0.14 bit/pixel
Аудио: 44.100 kHz, MPEG Layer 3, 2 ch, ~128.00 kbps avg
Cубтитры: отсутствуют

Media Info

General
Complete name : D:\Discovery.Uncovering.Aliens.Strange.lights.and.abduction.(2014).XviD.SATRip.avi
Format : AVI
Format/Info : Audio Video Interleave
File size : 358 MiB
Duration : 43mn 57s
Overall bit rate : 1 139 Kbps
Writing application : VirtualDubMod 1.5.10.2 (build 2540/release)
Writing library : VirtualDubMod build 2540/release
Video
ID : 0
Format : MPEG-4 Visual
Format profile : Advanced [email protected]
Format settings, BVOP : 1
Format settings, QPel : No
Format settings, GMC : No warppoints
Format settings, Matrix : Default (H.263)
Codec ID : XVID
Codec ID/Hint : XviD
Duration : 43mn 57s
Bit rate : 1 001 Kbps
Width : 704 pixels
Height : 400 pixels
Display aspect ratio : 16:9
Frame rate : 25.000 fps
Color space : YUV
Chroma subsampling : 4:2:0
Bit depth : 8 bits
Scan type : Progressive
Compression mode : Lossy
Bits/(Pixel*Frame) : 0.142
Stream size : 315 MiB (88%)
Writing library : XviD 1.2.1 (UTC 2008-12-04)
Audio
ID : 1
Format : MPEG Audio
Format version : Version 1
Format profile : Layer 3
Codec ID : 55
Codec ID/Hint : MP3
Duration : 43mn 57s
Bit rate mode : Constant
Bit rate : 128 Kbps
Channel count : 2 channels
Sampling rate : 44.1 KHz
Compression mode : Lossy
Stream size : 40.2 MiB (11%)
Alignment : Split accross interleaves
Interleave, duration : 40 ms (1.00 video frame)
Interleave, preload duration : 500 ms
Writing library : LAME3.98r
Encoding settings : -m s -V 4 -q 2 -lowpass 17 -b 128

Скриншот c названием фильма

Скриншоты

Яндекс.Метрика
Рейтинг@Mail.ru