Дискотека 80-х [Полная версия] (2018) 2хDVD-5

 

Post 22-May-2019 16:54

Дискотека 80-х [Полная версия]--- Информация о диске
Название: Дискотека 80-х [Полная версия] (2018) 2хDVD-5
Год выхода: 2018
Жанр: Disco
Режиссер: первый канал
В ролях: Томас Андерс, C.C. Catch, Юрий Антонов, Boney M ft. Liz Mitchell, "Кар-Мэн", Dschinghis Khan, Анжелика Варум, Дмитрий Маликов и др.
О диске:
Главная дискотека страны состоялась уже в 17-й раз и, как и прежде, подарила зрителям невероятные визуальные эффекты, качественный звук и, конечно же, выступления самых любимых российских и зарубежных звезд диско на одной сцене. В этом году в "Олимпийском" выступили 17 исполнителей, в том числе Томас Андерс, C.C. Catch, Юрий Антонов, Boney M ft. Liz Mitchell, "Кар-Мэн", Dschinghis Khan, Анжелика Варум, Дмитрий Маликов.-Страна: Россия
Продолжительность: 01:43:42+01:52:00
Перевод: не требуется
Файл
Формат: DVD Video
Качество: DVD-5
Видео: 720x576, (16:9) PAL, 44946 Кбит/сек, 25,000 кадр/сек
Звук: AC-3, 192 Кбит/сек, 2ch
Субтитры: отсутствуют

MediaInfo:

Диск 1
Общее
Полное имя : D:\Дискотека 80-х 2018 год (2xDVD-5)\Диск-1\VIDEO_TS\VTS_01_1.VOB
Формат : MPEG-PS
Размер файла : 1000 Мбайт
Продолжительность : 26 м. 21 с.
Режим общего битрейта : Переменный
Общий поток : 5308 Кбит/сек
Видео
Идентификатор : 224 (0xE0)
Формат : MPEG Video
Версия формата : Version 2
Профиль формата : [email protected]
Настройки формата : CustomMatrix / BVOP
Параметр BVOP формата : Да
Параметр матрицы формата : Выборочная
Параметр GOP формата : M=3, N=15
Продолжительность : 26 м. 21 с.
Вид битрейта : Переменный
Битрейт : 4946 Кбит/сек
Максимальный битрейт : 10000 Кбит/сек
Ширина : 720 пикселей
Высота : 576 пикселей
Соотношение сторон : 16:9
Частота кадров : 25,000 кадров/сек
Стандарт вещания : PAL
Цветовое пространство : YUV
Субдискретизация насыщенности : 4:2:0
Битовая глубина : 8 бит
Тип развёртки : Прогрессивная
Метод сжатия : С потерями
Бит/(Пиксели*Кадры) : 0.477
Временной код первого кадра : 00:00:00:00
Оригинал временного кода : Group of pictures header
GOP, открыто/закрыто : Открыто
GOP, открыто/закрыто на первом кадре : Закрыто
Размер потока : 932 Мбайт (93%)
Аудио
Идентификатор : 189 (0xBD)-128 (0x80)
Формат : AC-3
Формат/Информация : Audio Coding 3
Режим смешивания : DVD-Video
Продолжительность : 26 м. 20 с.
Вид битрейта : Постоянный
Битрейт : 256 Кбит/сек
Каналы : 2 канала
Расположение каналов : Front: L R
Частота : 48,0 КГц
Частота кадров : 31,250 кадров/сек (1536 SPF)
Битовая глубина : 16 бит
Метод сжатия : С потерями
Размер потока : 48,2 Мбайт (5%)
ServiceKind/String : Complete Main
Диск 2
Общее
Полное имя : D:\Дискотека 80-х 2018 год (2xDVD-5)\Диск-2\VIDEO_TS\VTS_01_1.VOB
Формат : MPEG-PS
Размер файла : 1000 Мбайт
Продолжительность : 27 м. 28 с.
Режим общего битрейта : Переменный
Общий поток : 5091 Кбит/сек
Видео
Идентификатор : 224 (0xE0)
Формат : MPEG Video
Версия формата : Version 2
Профиль формата : [email protected]
Настройки формата : CustomMatrix / BVOP
Параметр BVOP формата : Да
Параметр матрицы формата : Выборочная
Параметр GOP формата : M=3, N=15
Продолжительность : 27 м. 28 с.
Вид битрейта : Переменный
Битрейт : 4797 Кбит/сек
Максимальный битрейт : 8000 Кбит/сек
Ширина : 720 пикселей
Высота : 576 пикселей
Соотношение сторон : 16:9
Частота кадров : 25,000 кадров/сек
Стандарт вещания : PAL
Цветовое пространство : YUV
Субдискретизация насыщенности : 4:2:0
Битовая глубина : 8 бит
Тип развёртки : Прогрессивная
Метод сжатия : С потерями
Бит/(Пиксели*Кадры) : 0.463
Временной код первого кадра : 01:43:42:02
Оригинал временного кода : Group of pictures header
GOP, открыто/закрыто : Открыто
GOP, открыто/закрыто на первом кадре : Закрыто
Размер потока : 943 Мбайт (94%)
Аудио
Идентификатор : 189 (0xBD)-128 (0x80)
Формат : AC-3
Формат/Информация : Audio Coding 3
Режим смешивания : DVD-Video
Продолжительность : 27 м. 27 с.
Вид битрейта : Постоянный
Битрейт : 192 Кбит/сек
Каналы : 2 канала
Расположение каналов : Front: L R
Частота : 48,0 КГц
Частота кадров : 31,250 кадров/сек (1536 SPF)
Битовая глубина : 16 бит
Метод сжатия : С потерями
Размер потока : 37,7 Мбайт (4%)
ServiceKind/String : Complete Main

Треклист:

Диск 1
01. A'Cappella ExpreSSS - «Попурри»
02. Boney M - «Rasputin»
03. Boney M - «Daddy Cool»
04. Boney M - «Sunny»
05. Виктор Салтыков - «Белая ночь»
06. F.R.David - «Girl»
07. F.R.David - «Taxi»
08. F.R.David - «Words»
09. Дмитрий Маликов - «До завтра»
10. Gazebo - «Lunatic»
11. Gazebo - «I like Chopin»
12. Riccardo Fogli - «Malinconia»
13. Riccardo Fogli - «Alla Fine Di Un Lavoro»
14. Riccardo Fogli - «Storie di tutti i giorni»
15. Андрей Державин и группа «Сталкер» - Ночной город
16. Андрей Державин и группа «Сталкер» - «Не плачь, Алиса»
17. Secret Service - «The Dancer»
18. Secret Service - «Flash in the night»
19. Secret Service - «L.A.Goodbye»
20. Secret Service - «Ten O`Clock Postman»
Диск 2
01. Анжелика Варум - «Good bye, мой мальчик» (live)
02. Анжелика Варум - «Зимняя вишня» (live)
03. Земляне - «Попурри»
04. Чайф - «Никто не услышит» (live)
05. Чайф - «Аргентина-Ямайка 5:0» (live)
06. Чайф - «Оранжевое настроение» (live)
07. Чайф - «17 лет (live)
08. Savage - «Don`t Cry Tonight»
09. Savage - «Only You»
10. Savage - «Goodbye»
11. Кар-Мэн - «Бомбей-буги»
12. Кар-Мэн - «Сан-Франциско»
13. Кар-Мэн - «Париж»
14. C.C.Catch - «I Can Lose My Heart tonight» (live)
15. C.C.Catch - «Heaven and Hell» (live)
16. C.C.Catch - «Strangers by Night» (live)
17. Dschinghis Khan - «Dschinghis Khan»
18. Dschinghis Khan - «Moskau»
19. Юрий Антонов - «Золотая лестница»
20. Юрий Антонов - «Нет тебя прекрасней»
21. Юрий Антонов - «Не забывай»
22. Thomas Anders - «Brother Louie»
23. Thomas Anders - «Cheri Cheri Lady»
24. Thomas Anders - «Win the Race»
25. Thomas Anders - «You`re My Heart You`re My Soul»

Скриншоты меню

Диск 1Диск 2

Скриншоты

Релиз от: Rmk80disco (Sidr8691)

Post 22-May-2019 17:41 (after 46 minutes)

На DVD-9 тоже выложил.
Рейтинг@Mail.ru