[ Сегодня на трекере фрилич! Идет свободное скачивание без начисления Download ]

Цветы на чердаке / Flowers in the Attic (Дебора Чоу/Deborah Chow) [Триллер, Драма, Детектив, 2014] (HDRip)

 

Создавать темы 11-Фев-2014 16:27

Цветы на чердаке / Flowers in the Attic- Год выпуска: 2014
Производство: Канада, США | Cue the Dog Productions, Front Street Pictures
Жанр: Триллер, Драма, Детектив
Перевод: Одноголосый закадровый, любительский
Озвучка / Автор перевода: ViruseProject
Субтитры: Отсутствуют-Дата мировой премьеры: 18 января 2014-Режиссер: Дебора Чоу-Продюсер: Меридет Финн, Чарльз В. Фрайс, Дэмиен Ганчевски-Актеры: Хэзер Грэм, Эллен Бёрстин, Кирнан Шипка, Мэйсон Дай, Дилан Брюс, Ава Телек, Бо Дэниелс, Б.Дж. Харрисон, Эндрю Кавадас, Максвелл Ковач, Джон Эммет Трэйси, Kсанта Рэдли, Йен Робисан, Дон Томпсон ...-Описание фильма:
Когда у Корин Доллагэнгер внезапно умер любимый муж, для неё и четырёх детей настали тяжелые времена. Она осталась без гроша, без работы и не знала, что делать. Жизнь вынудила её вернуться в дом своих родителей Фоксвортов, людей богатых, но жестоких и ханжей.-
Продолжительность: 01:29:59
Качество видео: HDRip
Видеокодек: Xvid
Битрейт видео: ~ 1899 Кбит/сек
Размер кадра: 720 x 400 (1.800) at 23.976 fps
Аудиокодек: AC3 2.0
Битрейт аудио: 256 Кбит/сек, 48,0 КГц, 16 бит

MediaInfo:

Формат                                   : AVI
Формат/Информация                        : Audio Video Interleave
Размер файла                             : 1,36 Гбайт
Продолжительность                        : 1 ч. 29 м.
Общий поток                              : 2164 Кбит/сек
Программа кодирования                    : VirtualDubMod 1.5.10.2 (build 2540/release)
Библиотека кодирования                   : VirtualDubMod build 2540/release
Видео
Идентификатор                            : 0
Формат                                   : MPEG-4 Visual
Профиль формата                          : Advanced [email protected]
Параметр BVOP формата                    : 2
Параметр QPel формата                    : Нет
Параметр GMC формата                     : Без точки перехода
Параметр матрицы формата                 : Default (H.263)
Режим смешивания                         : Сжатый битовый поток
Идентификатор кодека                     : XVID
Идентификатор кодека/Подсказка           : XviD
Продолжительность                        : 1 ч. 29 м.
Битрейт                                  : 1899 Кбит/сек
Ширина                                   : 720 пикселей
Высота                                   : 400 пикселей
Соотношение сторон                       : 16:9
Частота кадров                           : 23,976 кадра/сек
Цветовое пространство                    : YUV
Субдискретизация насыщенности            : 4:2:0
Битовая глубина                          : 8 бит
Тип развёртки                            : Прогрессивная
Метод сжатия                             : С потерями
Бит/(Пиксели*Кадры)                      : 0.275
Размер потока                            : 1,19 Гбайт (88%)
Библиотека кодирования                   : XviD 64
Аудио
Идентификатор                            : 1
Формат                                   : AC-3
Формат/Информация                        : Audio Coding 3
Расширение режима                        : CM (complete main)
Параметр Endianness формата              : Big
Идентификатор кодека                     : 2000
Продолжительность                        : 1 ч. 29 м.
Вид битрейта                             : Постоянный
Битрейт                                  : 256 Кбит/сек
Каналы                                   : 2 канала
Расположение каналов                     : Front: L R
Частота                                  : 48,0 КГц
Битовая глубина                          : 16 бит
Метод сжатия                             : С потерями
Размер потока                            : 165 Мбайт (12%)
Выравнивание                             : Разделение по промежуткам
Продолжительность промежутка             : 42  мс. (1,00 видеокадр)
Время предзагрузки промежутка            : 500  мс.
Скриншоты:

-


Создавать темы 31-Янв-2016 14:07 (спустя 1 год 11 месяцев)

Топик был перенесен из форума Зарубежные Новинки (HD*Rip/LQ, DVDRip) в форум Зарубежные Фильмы (HD*Rip/LQ, DVDRip, SATRip, VHSRip)
T_O_M
Яндекс.Метрика
Рейтинг@Mail.ru