Свои (Михаил Колпахчиев) [2017-2018, детектив, WEBRip] (сезон 1, серии 1-36 из 36)

 

Post 14-May-2019 17:03

- Свои (сезон 1, серии 1-36 из 36) - Производство: Россия / ООО «Доля» по заказу Пятого канала
Жанр: детектив
Режиссер: Михаил Колпахчиев
Актеры: Антон Васильев, Полина Толстун, Инна Степанова, Ирина Горячева, Анна Лапина, Олег Жилин, Ярослав Воронцов, Степан Бекетов, Игорь Угаров, Игорь Лепихин и др.
Описание:
СВОИ» — это команда лучших экспертов из разных структур, которые объединились, чтобы разгадывать самые нетривиальные детективные загадки.
Судмедэксперт, криминалист, дознаватель, программист, психолог и даже экстрасенс! У каждого из них свой характер, свои слабости и, конечно же, свои суперспособности. Но при этом, как и любой из нас, они обыкновенные живые люди. Они «СВОИ».

Возраст: 16+ (зрителям, достигшим 16 лет)
Продолжительность: ~00:40:00 серия
Качество видео: WEBRip
Видео: Xvid, 720x400 (16:9), ~1111 kbps
Аудио: AC3, 2 ch, 192 kbps

MI

General
Complete name : D:\Мои фильмы\Svoi_S1-2_1-36iz36_2017-2018_XviD_WEBRip\01.Идеальная свадьба.avi
Format : AVI
Format/Info : Audio Video Interleave
File size : 446 MiB
Duration : 47 min 29 s
Overall bit rate : 1 312 kb/s
Writing application : VirtualDubMod 1.5.10.3 | www.virtualdub-fr.org || (build 2550/release)
Writing library : VirtualDub build 40412/release
Video
ID : 0
Format : MPEG-4 Visual
Format profile : Advanced [email protected]
Format settings : BVOP2
Format settings, BVOP : 2
Format settings, QPel : No
Format settings, GMC : No warppoints
Format settings, Matrix : Default (H.263)
Codec ID : XVID
Codec ID/Hint : XviD
Duration : 47 min 29 s
Bit rate : 1 111 kb/s
Width : 720 pixels
Height : 400 pixels
Display aspect ratio : 16:9
Frame rate : 25.000 FPS
Color space : YUV
Chroma subsampling : 4:2:0
Bit depth : 8 bits
Scan type : Progressive
Compression mode : Lossy
Bits/(Pixel*Frame) : 0.154
Stream size : 377 MiB (85%)
Writing library : XviD 67
Audio
ID : 1
Format : AC-3
Format/Info : Audio Coding 3
Commercial name : Dolby Digital
Codec ID : 2000
Duration : 47 min 29 s
Bit rate mode : Constant
Bit rate : 192 kb/s
Channel(s) : 2 channels
Channel layout : L R
Sampling rate : 48.0 kHz
Frame rate : 31.250 FPS (1536 SPF)
Bit depth : 16 bits
Compression mode : Lossy
Stream size : 65.2 MiB (15%)
Alignment : Aligned on interleaves
Interleave, duration : 40 ms (1.00 video frame)
Interleave, preload duration : 512 ms
Service kind : Complete Main
Скриншоты:
Рейтинг@Mail.ru