Братство (Павел Лунгин) [2019, Драма, боевик, история, военный, CAMRip, 720p-LQ]

 

Post 14-May-2019 16:56

-Братство - Производство: Россия / Мастерская Павла Лунгина
Жанр: Драма, боевик, история, военный
Режиссер: Павел Лунгин
Актеры: Кирилл Пирогов, Ян Цапник, Виталий Кищенко, Федор Лавров, Олег Васильков, Антон Момот, Михаил Кремер, Кирилл Ермичев, Роман Колотухин, Василий Буткевич
Описание:
1988 год, канун вывода советских войск из Афганистана. Командование 108-й мотострелковой дивизии планирует отход через перевал Саланг, подконтрольный группировке моджахедов Инженера Хошема. Разведка пытается договориться о перемирии с душманами, но дело осложняется тем, что в плен к Хошему попадает советский военный пилот. Начинается сложная игра, в которой переплетаются противоположные интересы множества самых разных людей: штабистов, исламистов, спецназа, разведки, чиновников из афганского правительства, сотрудников советских спецслужб, таджиков и пуштунов. А в самом центре этого водоворота оказываются солдаты разведроты, для которых важнее любых политических соображений остается правило — не бросать своих.

Возраст: 16+ (зрителям, достигшим 16 лет)
Дата премьеры в России: 10 мая 2019
Продолжительность: 01:45:11
Качество видео: CAMRip http://sendfile.su/1494390
Перевод: Не требуется (русский)
Субтитры: Отсутствуют
Реклама: Присутствуют вставки текстовой рекламы
Видео: AVC/H.264, 1280x600, ~3591 Kbps
Аудио: AC-3, 2 ch, 384 Kbps

MI

Общее
Полное имя : C:\XX\Братство\Bratstvo 2019 CAMRip 720p-LQ.mkv
Формат : Matroska
Версия формата : Version 2
Размер файла : 2,98 Гбайт
Продолжительность : 1 ч. 45 м.
Режим общего битрейта : Переменный
Общий поток : 4056 Кбит/сек
Программа кодирования : libmatroska 1.4.1
Видео
Идентификатор : 1
Формат : AVC
Формат/Информация : Advanced Video Codec
Профиль формата : [url=mailto:[email protected]][email protected][/url]
Настройки формата : CABAC / 4 Ref Frames
Параметр CABAC формата : Да
Параметр RefFrames формата : 4 кадра
Идентификатор кодека : V_MPEG4/ISO/AVC
Продолжительность : 1 ч. 45 м.
Вид битрейта : Переменный
Битрейт : 3591 Кбит/сек
Максимальный битрейт : 4000 Кбит/сек
Ширина : 1280 пикселей
Высота : 600 пикселей
Соотношение сторон : 2,133
Режим частоты кадров : Постоянный
Частота кадров : 23,976 (24000/1001) кадра/сек
Стандарт вещания : Component
Цветовое пространство : YUV
Субдискретизация насыщенности : 4:2:0
Битовая глубина : 8 бит
Тип развёртки : Прогрессивная
Бит/(Пиксели*Кадры) : 0.195
Размер потока : 2,64 Гбайт (89%)
Default : Нет
Forced : Нет
Цветовой диапазон : Limited
Основные цвета : BT.709
Характеристики трансфера : BT.709
Коэффициенты матрицы : BT.709
Аудио
Идентификатор : 2
Формат : AC-3
Формат/Информация : Audio Coding 3
Коммерческое название : Dolby Digital
Идентификатор кодека : A_AC3
Продолжительность : 1 ч. 45 м.
Вид битрейта : Постоянный
Битрейт : 384 Кбит/сек
Каналы : 2 канала
Channel layout : L R
Частота : 48,0 КГц
Частота кадров : 31,250 кадров/сек (1536 SPF)
Битовая глубина : 16 бит
Метод сжатия : С потерями
Размер потока : 289 Мбайт (9%)
ServiceKind/String : Complete Main
Default : Нет
Forced : Нет
Скриншоты:
Рейтинг@Mail.ru