Вокально-криминальный ансамбль (Степан Коршунов) [2019, Драмы, Детектив, SATRip] (серии с 1 по 16 из 16)

 

Post 15-Apr-2019 00:17

--Вокально-криминальный ансамбль (серии с 1 по 16 из 16)-- Страна: Россия
Год создания: 2019
Слоган: «Дорога возникает под шагами идущего»
Производство студии: IKa Film
Категория / Жанр: детектив, драма
Режиссер: Степан Коршунов
Сценарий: Денис Карышев
Продюсер: Михаил Ковалев, Иракли Карбая, Кирилл Бурдихин
Оператор: Николай Смирнов
В фильме снимались: Любовь Аксенова, Дмитрий Муляр, Иван Добронравов, Анатолий Белый, Артем Волобуев, Николай Козак, Петар Зекавица, Никита Волков, Игорь Черневич, Евгений Харитонов
Рекомендовано: зрителям, достигшим 16 лет
Описание:
В семидесятых годах, главные герои сериала «Вокально–криминальный ансамбль» вынуждены взяться за раскрытие нового преступления. Незаконным путем пытаются вывезти из страны важные ценности. Подозрения падают на Золоторевского Александра. Предъявить ему нечего, доказательств и особых улик нет. Однако версия следствия одна: - «Саша руководит преступной организацией, которая и виновна в хищении».
Главные герои – это члены музыкального ансамбля. Они все сотрудники МВД с прекрасными вокальными данными. Это должно им поспособствовать в раскрытии неординарного преступления. Работая под прикрытием, действующие личности пытаются раскрыть криминальную схему своего врага. Порой они оказываются в тупике, ведь приходится работать маленькой командой, без особого снаряжения. Всё должно выглядеть правдоподобно, и к ним не должно быть никаких вопросов. Нельзя спугнуть добычу, иначе ниточку к Золоторевскому отыскать не получится никогда.


Качество: SATRip
Видео: XviD, ~ 1650 Кбит/с, 720x304
Аудио: MP3, 2 ch, 192 Кбит/с
Продолжительность: 16 x ~ 00:48:00
Язык: Русский

МедиаИнфо

General
Complete name : D:\Vokalno.Kriminalnyi.ansambl.2018.XviD.SATRip.25Kuzmich\Vokalno.Kriminalnyi.ansambl.e15.XviD.SATRip.25Kuzmich.avi
Format : AVI
Format/Info : Audio Video Interleave
File size : 600 MiB
Duration : 44 min 4 s
Overall bit rate : 1 903 kb/s
Writing application : VirtualDubMod 1.5.10.3 | www.virtualdub-fr.org || (build 2550/release)
Writing library : VirtualDubMod build 2550/release
Video
ID : 0
Format : MPEG-4 Visual
Format profile : Advanced [email protected]
Format settings : BVOP1
Format settings, BVOP : 1
Format settings, QPel : No
Format settings, GMC : No warppoints
Format settings, Matrix : Default (MPEG)
Codec ID : XVID
Codec ID/Hint : XviD
Duration : 44 min 4 s
Bit rate : 1 701 kb/s
Width : 720 pixels
Height : 304 pixels
Display aspect ratio : 2.35:1
Frame rate : 25.000 FPS
Color space : YUV
Chroma subsampling : 4:2:0
Bit depth : 8 bits
Scan type : Progressive
Compression mode : Lossy
Bits/(Pixel*Frame) : 0.311
Stream size : 536 MiB (89%)
Writing library : XviD 73
Audio
ID : 1
Format : MPEG Audio
Format version : Version 1
Format profile : Layer 3
Format settings : Joint stereo
Codec ID : 55
Codec ID/Hint : MP3
Duration : 44 min 4 s
Bit rate mode : Constant
Bit rate : 192 kb/s
Channel(s) : 2 channels
Sampling rate : 48.0 kHz
Frame rate : 41.667 FPS (1152 SPF)
Compression mode : Lossy
Stream size : 60.5 MiB (10%)
Alignment : Aligned on interleaves
Interleave, duration : 40 ms (1.00 video frame)
Interleave, preload duration : 504 ms
Writing library : LAME3.99r
Encoding settings : -m j -V 4 -q 2 -lowpass 18.6 -b 192

Скриншоты:



Last edited by NIKOLASHA on 2019-04-17 05:55; edited 8 times in total

Post 17-Apr-2019 19:48 (after 2 days 19 hours)

читаем, думаем, делаем http://ddgroupclub.com/viewtopic.php?t=67346
сам всё поправил, но далее прошу всё-таки изучить тему релизов видео. в следующий раз не буду помогать...
Рейтинг@Mail.ru