Не состарится / Never Grow Old (2019) WEB-DLRip-AVC | HDRezka Studio

 

Post 13-Apr-2019 19:30

--Не состарится / Never Grow Old
«Hear no evil»-

Год выпуска: 2019
Страна: Ирландия
Производство: Ripple World Pictures, Iris Productions
Жанр: Боевик, триллер, драма, вестерн-Режиссёр: Иван Кэвэна
В ролях: Джон Кьюсак, Эмиль Хирш, Антония Кэмпбелл-Хьюз, Дэниэл Уэбб, Дебора Франсуа, Пол Рейд, Анн Косенс, Блейк Беррис, Пол Ронан, Тим Ахерн-Перевод: Профессиональный многоголосый | [HDRezka Studio]
Субтитры: Русские (полные), Английские (полные)
Реклама: Отсутствует
Описание: В небольшой набожный городок прибывает банда убийц и воров и начинает сеять смерть и хаос. В плюсе остаётся только местный гробовщик, хоронящий жертв. Но в итоге он должен решить, что для него важнее — сохранность семьи или деньги.
-Качество: WEB-DLRip-AVC | iTunes Version |
Продолжительность: 01:40:12
Формат: MKV
Видео кодек: MPEG-4 AVC
Аудио кодек: AC3
Видео: 1024x424 (2.40:1), 23,976 fps, x264 ~1 636 kbps avg, 0.157 bit/pixel
Аудио #1: 48 kHz, AC3 Dolby Digital, 2 (L,R) ch, ~192.00 kbps avg | RUS (HDRezka Studio)
Аудио #2: 48 kHz, AC3 Dolby Digital Plus, 3/2 (L,C,R,l,r) + LFE ch, ~256.00 kbps avg | ENG-Дата премьеры (мир): 15 марта 2019
Дата премьеры (РФ):
Цифровой релиз:

MediaInfo

Общее
Уникальный идентификатор : 181043914345119909628186421915033123167 (0x8833CA227B12293B327DC9ED9655B95F)
Полное имя : F:OlLanDGroupNever.Grow.Old.2019.WEB-DLRip(AVC).OlLanDGroup.mkv
Формат : Matroska
Версия формата : Version 4 / Version 2
Размер файла : 1,46 Гбайт
Продолжительность : 1 ч. 40 м.
Общий поток : 2086 Кбит/сек
Название фильма : Never.Grow.Old.2019 #TorpedoUK#
Дата кодирования : UTC 2019-04-13 00:15:47
Программа кодирования : mkvmerge v29.0.0 ('Like It Or Not') 64-bit
Библиотека кодирования : libebml v1.3.6 + libmatroska v1.4.9
Видео
Идентификатор : 1
Формат : AVC
Формат/Информация : Advanced Video Codec
Профиль формата : [email protected]
Параметр CABAC формата : Да
Параметр ReFrames формата : 10 кадров
Идентификатор кодека : V_MPEG4/ISO/AVC
Продолжительность : 1 ч. 40 м.
Битрейт : 1636 Кбит/сек
Ширина : 1024 пикселя
Высота : 424 пикселя
Соотношение сторон : 2,40:1
Режим частоты кадров : Постоянный
Частота кадров : 23,976 (24000/1001) кадра/сек
Цветовое пространство : YUV
Субдискретизация насыщенности : 4:2:0
Битовая глубина : 8 бит
Тип развёртки : Прогрессивная
Бит/(Пиксели*Кадры) : 0.157
Размер потока : 1,15 Гбайт (78%)
Библиотека кодирования : x264 core 146 r2538 121396c
Настройки программы : cabac=1 / ref=10 / deblock=1:-2:-3 / analyse=0x3:0x113 / me=umh / subme=10 / psy=1 / psy_rd=0.95:0.07 / mixed_ref=1 / me_range=48 / chroma_me=1 / trellis=2 / 8x8dct=1 / cqm=0 / deadzone=21,11 / fast_pskip=1 / chroma_qp_offset=-3 / threads=6 / lookahead_threads=1 / sliced_threads=0 / nr=0 / decimate=1 / interlaced=0 / bluray_compat=0 / constrained_intra=0 / bframes=11 / b_pyramid=2 / b_adapt=2 / b_bias=0 / direct=3 / weightb=1 / open_gop=0 / weightp=2 / keyint=240 / keyint_min=23 / scenecut=40 / intra_refresh=0 / rc_lookahead=40 / rc=2pass / mbtree=0 / bitrate=1636 / ratetol=1.0 / qcomp=0.60 / qpmin=0 / qpmax=69 / qpstep=4 / cplxblur=20.0 / qblur=0.5 / vbv_maxrate=50000 / vbv_bufsize=62500 / nal_hrd=none / filler=0 / ip_ratio=1.40 / pb_ratio=1.30 / aq=1:1.00
Default : Да
Forced : Нет
Аудио #1
Идентификатор : 2
Формат : AC-3
Формат/Информация : Audio Coding 3
Расширение режима : CM (complete main)
Параметр Endianness формата : Big
Идентификатор кодека : A_AC3
Продолжительность : 1 ч. 40 м.
Вид битрейта : Постоянный
Битрейт : 192 Кбит/сек
Каналы : 2 канала
Расположение каналов : Front: L R
Частота : 48,0 КГц
Частота кадров : 31,250 кадров/сек (1536 spf)
Битовая глубина : 16 бит
Метод сжатия : С потерями
Размер потока : 138 Мбайт (9%)
Заголовок : MVO [HDRezka Studio]
Язык : Russian
Default : Да
Forced : Нет
Аудио #2
Идентификатор : 3
Формат : AC-3
Формат/Информация : Audio Coding 3
Расширение режима : CM (complete main)
Параметр Endianness формата : Big
Идентификатор кодека : A_AC3
Продолжительность : 1 ч. 40 м.
Вид битрейта : Постоянный
Битрейт : 256 Кбит/сек
Каналы : 6 каналов
Расположение каналов : Front: L C R, Side: L R, LFE
Частота : 48,0 КГц
Частота кадров : 31,250 кадров/сек (1536 spf)
Битовая глубина : 16 бит
Метод сжатия : С потерями
Размер потока : 184 Мбайт (12%)
Заголовок : [Original]
Язык : English
Default : Нет
Forced : Нет
Текст #1
Идентификатор : 4
Формат : UTF-8
Идентификатор кодека : S_TEXT/UTF8
Идентификатор кодека/Информация : UTF-8 Plain Text
Продолжительность : 1 ч. 32 м.
Битрейт : 68 бит/сек
Count of elements : 1016
Размер потока : 46,1 Кбайт (0%)
Default : Да
Forced : Нет
Текст #2
Идентификатор : 5
Формат : UTF-8
Идентификатор кодека : S_TEXT/UTF8
Идентификатор кодека/Информация : UTF-8 Plain Text
Продолжительность : 1 ч. 37 м.
Битрейт : 42 бит/сек
Count of elements : 1067
Размер потока : 30,3 Кбайт (0%)
Default : Нет
Forced : Нет
Меню
00:00:00.000 : en:1
00:02:39.000 : en:2
00:12:49.000 : en:3
00:23:46.000 : en:4
00:33:33.000 : en:5
00:44:04.000 : en:6
00:54:13.000 : en:7
01:07:22.000 : en:8
01:15:37.000 : en:9
01:22:33.000 : en:10
01:35:07.000 : en:11

Скриншоты

Post 14-Apr-2019 17:54 (after 22 hours)

спасибо
Рейтинг@Mail.ru