Кадавр / The Possession of Hannah Grace (Дидерик Ван Ружен) [2018, ужасы, триллер, детектив, BDRip 720p от ExKinoRay | Лицензия]

 

Post 13-Apr-2019 17:55

Кадавр / The Possession of Hannah Grace-- Название: Кадавр
Оригинальное название: The Possession of Hannah Grace
Год выхода: 2018
Жанр: Ужасы, триллер, детектив
Режиссер: Дидерик Ван Ружен
В ролях: Шэй Митчелл, Грэй Дэймон, Кирби Джонсон, Ник Тун, Луис Хертэм, Стана Катик, Максимиллиан МакНамара, Джейкоб Минг-Трент, Джеймс А. Уотсон мл., Марианн Байяр-Описание:-Во время обряда экзорцизма одержимая Ханна Грэйс убивает священника, после чего её отец сам душит дочь подушкой. Бывшая полицейская Меган Рид посещает группу анонимных алкоголиков, но никак не может избавиться от видений прошлого. Она устраивается работать по ночам в морг городской больницы Бостона, и в первую же смену туда поступает изуродованное тело девушки. Вскоре Меган начинает казаться, что в пустых коридорах морга кто-то есть, и с этим телом определённо что-то не так.--Страна: США, Broken Road Productions, Screen Gems
Продолжительность: 01:25:44
Перевод: Дублированный | [Лицензия]
Субтитры: Русские (форсированные, полные), английские (полные)-БЕЗ КАКОЙ-ЛИБО РЕКЛАМЫ!-Формат: MKV
Качество: BDRip 720p
Видео: MPEG-4 AVC, 1280x536 (2.40:1), 23.976 fps, 3825 Kbps, 0.233 bit/pixel
Аудио 1: 48 kHz, AC3, 5.1, 448 Kbps | RUS |
Аудио 2: 48 kHz, AC3, 5.1, 448 Kbps | Оригинал | ENG | -

ОтчетМедиаИнфо

-General
Unique ID : 190652124954857658461937822569269960551 (0x8F6E437DFCB7881BB08E8C0A9F021F67)
Complete name : F:The.Possession.of.Hannah.Grace.2018.BDRip.720p.ExKinoRay.mkv
Format : Matroska
Format version : Version 2
File size : 2.83 GiB
Duration : 1 h 25 min
Overall bit rate : 4 723 kb/s
Movie name : The Possession of Hannah Grace (2018) from ExKinoRay
Encoded date : UTC 2019-04-12 03:04:01
Writing application : mkvmerge v5.6.0 ('Kenya Kane') built on May 27 2012 16:44:04
Writing library : libebml v1.2.3 + libmatroska v1.3.0
Video
ID : 1
Format : AVC
Format/Info : Advanced Video Codec
Format profile : [email protected]
Format settings, CABAC : Yes
Format settings, ReFrames : 12 frames
Codec ID : V_MPEG4/ISO/AVC
Duration : 1 h 25 min
Bit rate : 3 825 kb/s
Width : 1 280 pixels
Height : 536 pixels
Display aspect ratio : 2.40:1
Frame rate mode : Constant
Frame rate : 23.976 (24000/1001) FPS
Color space : YUV
Chroma subsampling : 4:2:0
Bit depth : 8 bits
Scan type : Progressive
Bits/(Pixel*Frame) : 0.233
Stream size : 2.24 GiB (79%)
Title : Enigma
Writing library : x264 core 152 r2851 ba24899
Encoding settings : cabac=1 / ref=12 / deblock=1:-2:-3 / analyse=0x3:0x113 / me=umh / subme=10 / psy=1 / psy_rd=1.02:0.09 / mixed_ref=1 / me_range=32 / chroma_me=1 / trellis=2 / 8x8dct=1 / cqm=0 / deadzone=21,11 / fast_pskip=0 / chroma_qp_offset=-3 / threads=12 / lookahead_threads=3 / sliced_threads=0 / nr=0 / decimate=0 / interlaced=0 / bluray_compat=0 / constrained_intra=0 / bframes=10 / b_pyramid=2 / b_adapt=2 / b_bias=0 / direct=3 / weightb=1 / open_gop=0 / weightp=2 / keyint=240 / keyint_min=23 / scenecut=40 / intra_refresh=0 / rc_lookahead=40 / rc=2pass / mbtree=1 / bitrate=3825 / ratetol=1.0 / qcomp=0.65 / qpmin=0 / qpmax=51 / qpstep=4 / cplxblur=20.0 / qblur=0.5 / vbv_maxrate=50000 / vbv_bufsize=62500 / nal_hrd=none / filler=0 / ip_ratio=1.30 / aq=2:0.90
Language : English
Default : Yes
Forced : No
Color range : Limited
Color primaries : BT.709
Transfer characteristics : BT.709
Matrix coefficients : BT.709
Audio #1
ID : 2
Format : AC-3
Format/Info : Audio Coding 3
Mode extension : CM (complete main)
Format settings, Endianness : Big
Codec ID : A_AC3
Duration : 1 h 25 min
Bit rate mode : Constant
Bit rate : 448 kb/s
Channel(s) : 6 channels
Channel positions : Front: L C R, Side: L R, LFE
Sampling rate : 48.0 kHz
Frame rate : 31.250 FPS (1536 spf)
Compression mode : Lossy
Stream size : 275 MiB (9%)
Title : Dub (License)
Language : Russian
Default : Yes
Forced : No
Audio #2
ID : 3
Format : AC-3
Format/Info : Audio Coding 3
Mode extension : CM (complete main)
Format settings, Endianness : Big
Codec ID : A_AC3
Duration : 1 h 25 min
Bit rate mode : Constant
Bit rate : 448 kb/s
Channel(s) : 6 channels
Channel positions : Front: L C R, Side: L R, LFE
Sampling rate : 48.0 kHz
Frame rate : 31.250 FPS (1536 spf)
Compression mode : Lossy
Stream size : 275 MiB (9%)
Language : English
Default : No
Forced : No
Text #1
ID : 4
Format : UTF-8
Codec ID : S_TEXT/UTF8
Codec ID/Info : UTF-8 Plain Text
Title : Forced
Language : Russian
Default : Yes
Forced : No
Text #2
ID : 5
Format : UTF-8
Codec ID : S_TEXT/UTF8
Codec ID/Info : UTF-8 Plain Text
Title : Full
Language : Russian
Default : No
Forced : No
Text #3
ID : 6
Format : UTF-8
Codec ID : S_TEXT/UTF8
Codec ID/Info : UTF-8 Plain Text
Language : English
Default : No
Forced : No
Menu
00:00:00.000 : :Chapter 01
00:05:30.955 : :Chapter 02
00:10:07.231 : :Chapter 03
00:15:24.548 : :Chapter 04
00:21:30.289 : :Chapter 05
00:26:07.649 : :Chapter 06
00:31:27.719 : :Chapter 07
00:36:12.211 : :Chapter 08
00:41:45.002 : :Chapter 09
00:47:07.115 : :Chapter 10
00:51:57.823 : :Chapter 11
00:56:37.602 : :Chapter 12
01:03:44.320 : :Chapter 13
01:08:01.786 : :Chapter 14
01:13:25.818 : :Chapter 15
01:20:45.674 : :Chapter 16
--

Скриншоты

--
-Релиз от: -Автор релиза: -
Рейтинг@Mail.ru