[ Сегодня на трекере фрилич! Идет свободное скачивание без начисления Download ]

Доктор Айболит (1985) DVDRip

 

Создавать темы 10-Фев-2014 19:36

Страна: CCCP
Производство: Киевнаучфильм
Жанр: мультфильм, мюзикл, семейный
Год выпуска: 1985
Продолжительность: 01:08:27
Перевод: не требуется
Оригинальная аудиодорожка: русский
Cубтитры: нет
Режиссер: Давид Черкасский
Роли озвучивали:
Георгий Кишко, Семен Фарада, Мария Миронова, Зиновий Гердт, Людмила Иванова, Людмила Ларина, Зоя Пыльнова, Всеволод Абдулов, Евгений Паперный, Ю. Врублевский...

Злой разбойник Бармалей, именем которого давно пугали детей, сидит в тюрьме под охраной Гиппопотама. Друзья-пираты помогают своему главарю сбежать, но Гиппопотам тайком проникает на их корабль и старается выведать планы злодеев. В это время тётушка Варвара, сварливая сестра доброго доктора Айболита, уходит от брата, заявляя, что ненавидит зверей, которых любит и лечит доктор. По воле случая Варвара попадает на пиратскую шхуну. Шхуна причаливает к берегам Африки, где разбойники устраивают для зверей представление «Муха-Цокотуха» (партию Мухи исполняет Варвара), а затем раздают отравленное угощение, и все звери заболевают. Гиппопотам, который всё видел, звонит в Ленинград Айболиту…- -Исходник: DVD5 R5
Тип релиза: DVDRip
Контейнер: AVI
Видео: 720x528 (4:3), 25 fps, XviD ~ 2041 kbps avg, 0.215 bit/pixel
Аудио: 48 kHz, Dolby Digital AC3 5.1, 448 kbps-

MediaInfo

Общее
Полное имя : Doktor.Aibolit.1985.DVDRip_by_AVP_Studio.avi
Формат : AVI
Формат/Информация : Audio Video Interleave
Размер файла : 1,19 Гбайт
Продолжительность : 1 ч. 8 м.
Общий поток : 2499 Кбит/сек
Программа кодирования : VirtualDubModRus 1.5.10.2 (build 2542/release)
Библиотека кодирования : VirtualDubMod build 2542/release
Видео
Идентификатор : 0
Формат : MPEG-4 Visual
Профиль формата : Advanced [email protected]
Параметр BVOP формата : 1
Параметр QPel формата : Нет
Параметр GMC формата : Без точки перехода
Параметр матрицы формата : Выборочная
Идентификатор кодека : XVID
Идентификатор кодека/Подсказка : XviD
Продолжительность : 1 ч. 8 м.
Битрейт : 2041 Кбит/сек
Ширина : 720 пикселей
Высота : 528 пикселей
Соотношение сторон : 4:3
Частота кадров : 25,000 кадров/сек
Цветовое пространство : YUV
Субдискретизация насыщенности : 4:2:0
Битовая глубина : 8 бит
Тип развёртки : Прогрессивная
Метод сжатия : С потерями
Бит/(Пиксели*Кадры) : 0.215
Размер потока : 999 Мбайт (82%)
Библиотека кодирования : XviD 73
Аудио
Идентификатор : 1
Формат : AC-3
Формат/Информация : Audio Coding 3
Расширение режима : CM (complete main)
Параметр Endianness формата : Big
Идентификатор кодека : 2000
Продолжительность : 1 ч. 8 м.
Вид битрейта : Постоянный
Битрейт : 448 Кбит/сек
Каналы : 6 каналов
Расположение каналов : Front: L C R, Side: L R, LFE
Частота : 48,0 КГц
Битовая глубина : 16 бит
Метод сжатия : С потерями
Размер потока : 219 Мбайт (18%)
Выравнивание : Разделение по промежуткам
Продолжительность промежутка : 40 мс. (1,00 видеокадр)
Время предзагрузки промежутка : 500 мс

Скриншоты

Яндекс.Метрика
Рейтинг@Mail.ru