ХХII Зимние Олимпийские Игры Сочи 2014 / Биатлон / Мужчины / Спринт 10 км (ТВ канал - Спорт 1) [2014 г., HDTVRip]

 

Создавать темы 10-Фев-2014 18:38

ХХII Зимние Олимпийские Игры Сочи 2014 / Биатлон / Мужчины / Спринт 10 кмЖаркие. Зимние. Твои.Официальный сайт "Сочи 2014" -Год выпуска: 8 февраля 2014 г.
Вид спорта: Биатлон
Продолжительность: 01:36:13
Комментатор: Дмитрий Губернев
Язык комментариев: русский
Автор рипа / записи: REXNN52-ТВ Канал: -Описание: Сегодня, 8 февраля, в Сочи на Олимпийских играх-2014 пройдет мужской биатлонный спринт на 10 км. За сборную России олимпийский спринт побегут биатлонисты: олимпийский чемпион Евгений Устюгов стартует первым из россиян (№8). Дмитрий Малышко получил 46-й стартовый номер, Антон Шипулин — 48-й, Евгений Гараничев — 68-й. Всего на мужской спринт заявлено 87 биатлонистов. Норвежцы Оле Эйнар Бьорндален и Эмиль Хегле Свендсен стартуют 24-м и 29-м соответственно, швед Бьорн Ферри — 36-м, немец Арнд Пайффер — 38-м, француз Мартен Фуркад — 39-м.
Состав мужской сборной России на спринт Олимпийских игр в Сочи-2014
Евгений Устюгов (№8)
Дмитрий Малышко (№46)
Антон Шипулин (№48)
Евгений Гараничев (№68)-Качество видео: HDTVRip
Контейнер: AVI
Видео кодек: Xvid
Аудио кодек: Mp3
Видео: 704x400 (1.76:1), 25 fps, XviD MPEG-4 ~1802 kbps avg, 0.26 bit/pixel
Аудио: 48 kHz, MPEG Layer 3, 2 ch, ~128.00 kbps avg
[url=http://pirat.ca/viewtopic.php?t=126746][/url]Биатлон. Расписание и результаты. Скачать.

Составы команд

1 SMITH Nathan CAN
2 LINDSTROEM Fredrik SWE
3 DESTHIEUX Simon FRA
4 KAUKENAS Tomas LTU
5 KOIV Kauri EST
6 MORAVEC Ondrej CZE
7 KAUPPINEN Jarkko FIN
8 USTYUGOV Evgeny RUS
9 LOBO ESCOLAR Victor ESP
10 REN Long CHN
11 STEPHAN Christoph GER
12 KLETCHEROV Michail BUL
13 PUCHIANU Cornel ROU
14 WIESTNER Serafin SUI
15 LANDERTINGER Dominik AUT
16 SAVITSKIY Yan KAZ
17 PLYWACZYK Krzysztof POL
18 SEDNEV Serguei UKR
19 CHEPELIN Vladimir BLR
20 PETROVIC Milanko SRB
21 KAZAR Matej SVK
22 LEE In-Bok KOR
23 WINDISCH Markus ITA
24 BJOERNDALEN Ole Einar NOR
25 DOKL Peter SLO
26 BAILEY Lowell USA
27 SLESINGR Michal CZE
28 ISA Hidenori JPN
29 SVENDSEN Emil Hegle NOR
30 EDER Simon AUT
31 DERYZEMLYA Andriy UKR
32 SUMANN Christoph AUT
33 ALMOUKOV Alexei AUS
34 BOE Johannes Thingnes NOR
35 RASTORGUJEVS Andrejs LAT
36 FERRY Bjoern SWE
37 WINDISCH Dominik ITA
38 PEIFFER Arnd GER
39 FOURCADE Martin FRA
40 SOUKUP Jaroslav CZE
41 WEGER Benjamin SUI
42 JACKSON Lee-Steve GBR
43 BURKE Tim USA
44 STEPTSENKO Danil EST
45 ANEV Krasimir BUL
46 MALYSHKO Dmitry RUS
47 GOMBOS Karoly HUN
48 SHIPULIN Anton RUS
49 PANTOV Anton KAZ
50 NOVIKOV Sergey BLR
51 GREEN Brendan CAN
52 BOE Tarjei NOR
53 SZCZUREK Lukasz POL
54 BAUER Klemen SLO
55 SCHEMPP Simon GER
56 HURAJT Pavol SVK
57 BEATRIX Jean Guillaume FRA
58 TOIVANEN Ahti FIN
59 ILIEV Vladimir BUL
60 GUZIK Grzegorz POL
61 ABRAMENKO Evgeny BLR
62 LESSER Erik GER
63 KRUPCIK Tomas CZE
64 FOURCADE Simon FRA
65 LE GUELLEC Jean-Philippe CAN
66 TOBRELUTS Indrek EST
67 SEMENOV Serhiy UKR
68 GARANICHEV Evgeniy RUS
69 MESOTITSCH Daniel AUT
70 BERGMAN Carl Johan SWE
71 NAUMIK Sergey KAZ
72 FAK Jakov SLO
73 NORDGREN Leif USA
74 HASILLA Tomas SVK
75 HOFER Lukas ITA
76 LESSING Roland EST
77 PRYMA Artem UKR
78 PERRAS Scott CAN
79 KENESHEV Dias KAZ
80 LIADOV Yuryi BLR
81 DE LORENZI Christian ITA
82 ARWIDSON Tobias SWE
83 OTCENAS Martin SVK
84 LEPEL Rafal POL
85 ZLATEV Ivan BUL
86 MARIC Janez SLO
87 CURRIER Russell USA

Media Info

Общее
Формат : AVI
Формат/Информация : Audio Video Interleave
Размер файла : 1,30 Гбайт
Продолжительность : 1 ч. 36 м.
Общий поток : 1935 Кбит/сек
Библиотека кодирования : TMPGEnc 4.0 XPress Version. 4.7.7.307
Видео
Идентификатор : 0
Формат : MPEG-4 Visual
Профиль формата : Advanced [email protected]
Параметр BVOP формата : 2
Параметр QPel формата : Нет
Параметр GMC формата : Без точки перехода
Параметр матрицы формата : Default (H.263)
Режим смешивания : Сжатый битовый поток
Идентификатор кодека : XVID
Идентификатор кодека/Подсказка : XviD
Продолжительность : 1 ч. 36 м.
Битрейт : 1800 Кбит/сек
Ширина : 704 пикселя
Высота : 400 пикселей
Соотношение сторон : 16:9
Частота кадров : 25,000 кадров/сек
Цветовое пространство : YUV
Субдискретизация насыщенности : 4:2:0
Битовая глубина : 8 бит
Тип развёртки : Прогрессивная
Метод сжатия : С потерями
Бит/(Пиксели*Кадры) : 0.256
Размер потока : 1,21 Гбайт (93%)
Библиотека кодирования : XviD 64
Аудио
Идентификатор : 1
Формат : MPEG Audio
Версия формата : Version 1
Профиль формата : Layer 3
Режим : Joint stereo
Расширение режима : MS Stereo
Идентификатор кодека : 55
Идентификатор кодека/Подсказка : MP3
Продолжительность : 1 ч. 36 м.
Вид битрейта : Постоянный
Битрейт : 128 Кбит/сек
Каналы : 2 канала
Частота : 48,0 КГц
Метод сжатия : С потерями
Размер потока : 88,1 Мбайт (7%)
Выравнивание : Соединение по промежуткам
Продолжительность промежутка : 250 мс. (6,25 видеокадров)
Время предзагрузки промежутка : 192 мс.

Скриншоты

Яндекс.Метрика
Рейтинг@Mail.ru