[ Сегодня на трекере фрилич! Идет свободное скачивание без начисления Download ]

Олимпийские игры 2014. Шорт-трек. Мужчины, женщины. Квалификации, полуфиналы, финал (2014.02.10) HDTVRip

 

Создавать темы 10-Фев-2014 18:28

Олимпийские игры 2014. Шорт-трек. Мужчины, женщины. Квалификации, полуфиналы, финал (2014.02.10)- Режиссер / Телекомпания: СПОРТХИТ LIVE
Русское название: Олимпийские игры 2014
Год выпуска: 2014
Жанр: Спорт
Выпущено: Россия, НТВ+
Описание:
Командные соревнования в фигурном катании на коньках — это состязания лучших национальных команд. Представители одиночного катания и парного катания представляют короткую и произвольную программы; в танцах на льду — выполняют короткий и произвольный танец. В каждой команде могут быть по одной спортивной и танцевальной паре, по одному мужчине и женщине в одиночном катании.
Ведущие:
Продолжительность: 00:58:
Видеокодек: AVC
Качество видео: HDTVRip
Битрейт видео: ~1550 kb/s
Размер кадра: 704 x 400
Аудиокодек: AC-3, 2.0ch.
Битрейт аудио: 192 kb/s

MediaInfo:

Формат : Matroska
Версия формата : Version 2
Размер файла : 482 Мбайт
Продолжительность : 37 м.
Общий поток : 1775 Кбит/сек
Программа кодирования : XviD4PSP 6.0 / 54.29.105
Библиотека кодирования : XviD4PSP 6.0 / 54.29.105
Видео
Идентификатор : 2
Формат : AVC
Формат/Информация : Advanced Video Codec
Профиль формата : [url=mailto:[email protected]][email protected][/url]
Параметр CABAC формата : Да
Параметр ReFrames формата : 3 кадра
Идентификатор кодека : V_MPEG4/ISO/AVC
Продолжительность : 37 м.
Битрейт : 1547 Кбит/сек
Номинальный битрейт : 1700 Кбит/сек
Ширина : 704 пикселя
Высота : 400 пикселей
Соотношение сторон : 16:9
Режим частоты кадров : Переменный
Частота кадров : 25,000 кадров/сек
Цветовое пространство : YUV
Субдискретизация насыщенности : 4:2:0
Битовая глубина : 8 бит
Тип развёртки : Прогрессивная
Бит/(Пиксели*Кадры) : 0.220
Размер потока : 420 Мбайт (87%)
Библиотека кодирования : x264 core 128 r2216M 198a7ea
Настройки программы : cabac=1 / ref=3 / deblock=1:0:0 / analyse=0x3:0x133 / me=hex / subme=7 / psy=1 / psy_rd=1.00:0.20 / mixed_ref=1 / me_range=16 / chroma_me=1 / trellis=1 / 8x8dct=1 / cqm=0 / deadzone=21,11 / fast_pskip=1 / chroma_qp_offset=-3 / threads=8 / lookahead_threads=1 / sliced_threads=0 / nr=0 / decimate=1 / interlaced=0 / bluray_compat=0 / constrained_intra=0 / bframes=3 / b_pyramid=1 / b_adapt=2 / b_bias=0 / direct=3 / weightb=1 / open_gop=0 / weightp=2 / keyint=250 / keyint_min=25 / scenecut=40 / intra_refresh=0 / rc_lookahead=40 / rc=cbr / mbtree=1 / bitrate=1700 / ratetol=1.0 / qcomp=0.60 / qpmin=10 / qpmax=51 / qpstep=4 / vbv_maxrate=1700 / vbv_bufsize=1700 / nal_hrd=none / ip_ratio=1.40 / aq=1:1.00
Язык : English
Default : Да
Forced : Нет
HANDLER_NAME : AVerMedia Video Media Handler
Аудио
Идентификатор : 1
Формат : AC-3
Формат/Информация : Audio Coding 3
Расширение режима : CM (complete main)
Идентификатор кодека : A_AC3
Продолжительность : 37 м.
Вид битрейта : Постоянный
Битрейт : 192 Кбит/сек
Каналы : 2 канала
Расположение каналов : Front: L R
Частота : 48,0 КГц
Битовая глубина : 16 бит
Метод сжатия : С потерями
Задержка видео : 27 мс.
Размер потока : 52,1 Мбайт (11%)
Язык : English
Default : Да
Forced : Нет
HANDLER_NAME : AVerMedia Audio Media Handler
Скриншоты:-
Яндекс.Метрика
Рейтинг@Mail.ru