Друзья с колледжа / Friends from College (Николас Столлер, Эндрю Герлэнд, Франческа ДеБланко) [2018, WEB-DL, H.264/1080p-LQ] (сезон 2, серии 1-8 из 8) AMS [AD]

 

Post 13-Mar-2019 15:57

- Друзья с колледжа / Friends from College (сезон 2, серии 1-8 из 8)- Производство: США
Жанр: драма, комедия
Режиссер: Николас Столлер, Эндрю Герлэнд, Франческа ДеБланко
Актеры: Кигэн-Майкл Ки, Фред Сэвэдж, Нат Факсон, Энни Пэррис, Джэ Су Парк, Коби Смолдерс, Грег Джерманн, Билли Айкнер, Зак Робидас, Франческа ДеБланко и др.
Описание:
Когда-то они вместе поступали в Гарвард, чтобы отучиться и стать настоящими мастерами своего дела. Теперь персонажам около сорока, с огромным жизненным багажом они рассуждают о прошлом и анализируют свои поступки, а также выясняют отношения со своими бывшими приятелями. Но до сих пор в их сердцах живёт верность друзьям, чувство романтической близости к тем, в кого когда-то были влюблены

Продолжительность: ~00:30:00 серия
Качество видео: WEB-DL [thumb]http://sendfile.su/1481592[/thumb]
Перевод: Многоголосый закадровый, профессиональный - AMS (Adiós Muchachos Studio)
Субтитры: английские
Реклама: присутствуют аудио вставки рекламы
Видео: AVC/H.264, 1920x960 (16:9), ~9410 Kbps
Аудио #1 Rus: AC3, 48,0 kHz, 2 ch, 384 Kbps - русский, многоголосый закадровый
Аудио #2 Eng: E-AC3, 48,0 kHz, 6 ch, 640 Kbps - английский

MI

General
Unique ID : 72080670693354285254249552562893411825 (0x363A3B721D11DE234D0CB270EF64D5F1)
Complete name : /AMSNW/Friends.from.College.S02.1080p.WEBRip.AMS/Friends.from.College.S02E01.1080p.WEBRip.AMS.mkv
Format : Matroska
Format version : Version 4 / Version 2
File size : 2.13 GiB
Duration : 29mn 15s
Overall bit rate : 10.4 Mbps
Encoded date : UTC 2019-01-01 23:59:59
Writing application : mkvmerge v8.2.0 ('World of Adventure') 64bit
Writing library : libebml v1.3.1 + libmatroska v1.4.2
Video
ID : 1
Format : AVC
Format/Info : Advanced Video Codec
Format profile : [url=mailto:[email protected]][email protected][/url]
Format settings, CABAC : Yes
Format settings, ReFrames : 4 frames
Codec ID : V_MPEG4/ISO/AVC
Duration : 29mn 15s
Bit rate : 9 410 Kbps
Width : 1 920 pixels
Height : 960 pixels
Display aspect ratio : 2.000
Frame rate mode : Constant
Frame rate : 23.976 (24000/1001) fps
Color space : YUV
Chroma subsampling : 4:2:0
Bit depth : 8 bits
Scan type : Progressive
Bits/(Pixel*Frame) : 0.213
Stream size : 1.92 GiB (90%)
Writing library : x264 core 157 r2935+3 (master: 545de2f / tmod: 0f48dd4) [X86_64]
Encoding settings : cabac=1 / ref=4 / deblock=1:-3:-3 / analyse=0x3:0x133 / me=umh / subme=11 / psy=1 / psy_rd=1.05:0.15 / mixed_ref=1 / me_range=48 / chroma_me=1 / trellis=2 / 8x8dct=1 / cqm=0 / deadzone=6,6 / fast_pskip=0 / chroma_qp_offset=-3 / threads=30 / lookahead_threads=7 / sliced_threads=0 / nr=0 / decimate=0 / interlaced=0 / bluray_compat=0 / constrained_intra=0 / bframes=10 / b_pyramid=2 / b_adapt=2 / b_bias=0 / direct=3 / weightb=1 / open_gop=0 / weightp=2 / keyint=250 / keyint_min=23 / scenecut=40 / intra_refresh=0 / rc_lookahead=60 / rc=crf / mbtree=0 / crf=17.0 / qcomp=0.70 / qpmin=0 / qpmax=69 / qpstep=4 / vbv_maxrate=62500 / vbv_bufsize=78125 / crf_max=0.0 / nal_hrd=none / filler=0 / ip_ratio=1.25 / pb_ratio=1.20 / aq=3:0.70
Language : English
Default : Yes
Forced : No
Audio #1
ID : 2
Format : AC-3
Format/Info : Audio Coding 3
Mode extension : CM (complete main)
Format settings, Endianness : Big
Codec ID : A_AC3
Duration : 29mn 15s
Bit rate mode : Constant
Bit rate : 384 Kbps
Channel(s) : 2 channels
Channel positions : Front: L R
Sampling rate : 48.0 KHz
Frame rate : 31.250 fps (1536 spf)
Compression mode : Lossy
Stream size : 80.4 MiB (4%)
Title : AMS
Language : Russian
Default : Yes
Forced : No
Audio #2
ID : 3
Format : E-AC-3
Format/Info : Audio Coding 3
Format settings, Endianness : Big
Codec ID : A_EAC3
Duration : 29mn 15s
Bit rate mode : Constant
Bit rate : 640 Kbps
Channel(s) : 6 channels
Channel positions : Front: L C R, Side: L R, LFE
Sampling rate : 48.0 KHz
Frame rate : 187.500 fps (256 spf)
Compression mode : Lossy
Stream size : 134 MiB (6%)
Title : Original
Language : English
Default : No
Forced : No
Text #1
ID : 4
Format : UTF-8
Codec ID : S_TEXT/UTF8
Codec ID/Info : UTF-8 Plain Text
Duration : 27mn 40s
Bit rate : 89 bps
Count of elements : 581
Stream size : 18.2 KiB (0%)
Language : English
Default : No
Forced : No
Text #2
ID : 5
Format : UTF-8
Codec ID : S_TEXT/UTF8
Codec ID/Info : UTF-8 Plain Text
Duration : 29mn 0s
Bit rate : 96 bps
Count of elements : 635
Stream size : 20.6 KiB (0%)
Title : (SDH)
Language : English
Default : No
Forced : No
Скриншоты:
Рейтинг@Mail.ru