[ Сегодня на трекере фрилич! Идет свободное скачивание без начисления Download ]

ХХII Зимние Олимпийские Игры Сочи 2014 / Хоккей / Женщины / Россия - Германия / Группа B / 1-й тур (ТВ канал - XSPORT) [2014 г., Хоккей, IPTVRip]

 

Создавать темы 10-Фев-2014 13:24

ХХII Зимние Олимпийские Игры Сочи 2014 / Хоккей / Женщины / Россия - ГерманияЖаркие. Зимние. Твои.Официальный сайт "Сочи 2014" -Год выпуска: 9 февраля 2014 г.
Вид спорта: Хоккей
Продолжительность: 01:44:38
Комментатор: Александр Сухманский, Евгений Бруль
Язык комментариев: русский
Автор рипа / записи: tigerabbit-ТВ Канал: -Описание: Арена: Шайба (Сочи, Россия) 09 февраля 2014 года, воскресенье. 17:00 мск. Главный судья: Анна Эскола (Финляндия).-Качество видео: IPTVRip
Контейнер: AVI
Видео кодек: XviD
Аудио кодек: MP3
Видео: 704x400 (1.76:1), 25 fps, ~1800 kbps avg, 0.26 bit/pixel
Аудио: 48 kHz, MPEG Layer 3, 2 ch, ~128.00 kbps avg
[url=http://pirat.ca/viewtopic.php?t=126668][/url]Хоккей на льду. Расписание и результаты. Скачать.

Составы команд

Россия: Юлия Лескина (Анна Пругова), Светлана Ткачёва — Инна Дюбанок — Ия Гаврилова — Татьяна Бурина — Галина Скиба, Ангелина Гончаренко — Александра Капустина — Екатерина Смоленцева — Ольга Сосина — Екатерина Лебедева, Алёна Хомич — Анна Шибанова — Александра Вафина — Екатерина Смолина — Елена Дергачёва, Анна Щукина — Анна Шохина — Екатерина Пашкевич.
Главный тренер: Михаил Чеканов.
Германия: Виона Харрер (Дженнифер Харсс), Сюзанн Гоц — Сюзанна Фелльнер — Сара Зайлер — Лиза-Кристин Шустер — Маритта Бекер, Андреа Ланцль — Таня Айзеншмид — Мануэла Анвандер — Жаклин Янцен — Франциска Буш, Джессика Хаммерль — Аня Вайссер — Нина Каменик — Керстин Шпильбергер — Моника Биттнер, Софи Крацер — Беттина Эверес — Юлия Цорн.
Главный тренер: Петер Катхан.

Media Info

Общее
Формат : AVI
Формат/Информация : Audio Video Interleave
Размер файла : 1,42 Гбайт
Продолжительность : 1 ч. 44 м.
Общий поток : 1939 Кбит/сек
Библиотека кодирования : VirtualDub build 32817/release
Видео
Идентификатор : 0
Формат : MPEG-4 Visual
Профиль формата : [email protected]
Параметр BVOP формата : Нет
Параметр QPel формата : Нет
Параметр GMC формата : Без точки перехода
Параметр матрицы формата : Default (H.263)
Идентификатор кодека : XVID
Идентификатор кодека/Подсказка : XviD
Продолжительность : 1 ч. 44 м.
Битрейт : 1801 Кбит/сек
Ширина : 704 пикселя
Высота : 400 пикселей
Соотношение сторон : 16:9
Частота кадров : 25,000 кадров/сек
Цветовое пространство : YUV
Субдискретизация насыщенности : 4:2:0
Битовая глубина : 8 бит
Тип развёртки : Прогрессивная
Метод сжатия : С потерями
Бит/(Пиксели*Кадры) : 0.256
Размер потока : 1,32 Гбайт (93%)
Библиотека кодирования : Lavc52.37.0
Аудио
Идентификатор : 1
Формат : MPEG Audio
Версия формата : Version 1
Профиль формата : Layer 3
Режим : Joint stereo
Расширение режима : MS Stereo
Идентификатор кодека : 55
Идентификатор кодека/Подсказка : MP3
Продолжительность : 1 ч. 44 м.
Вид битрейта : Постоянный
Битрейт : 128 Кбит/сек
Каналы : 2 канала
Частота : 48,0 КГц
Метод сжатия : С потерями
Размер потока : 95,8 Мбайт (7%)
Выравнивание : Разделение по промежуткам
Продолжительность промежутка : 40 мс. (1,00 видеокадр)
Время предзагрузки промежутка : 500 мс.

Скриншоты

Яндекс.Метрика
Рейтинг@Mail.ru