XXII Зимние Олимпийские Игры Сочи 2014 / Фристайл, Могул / Женщины / Квалификация (ТВ канал - Спорт) [2014 г., IPTVRip]

 

Создавать темы 10-Фев-2014 13:19

XXII Зимние Олимпийские Игры Сочи 2014 / Фристайл, Могул / Женщины / КвалификацияЖаркие. Зимние. Твои.Официальный сайт "Сочи 2014" -Год выпуска: 6 февраля 2014 г.
Вид спорта: Фристайл, Могул
Продолжительность: 01:11:51
Комментатор: Елизавета Кожевникова, Павел Занозин
Язык комментариев: русский
Автор рипа / записи: Arsenal15-ТВ Канал: -Описание: Могул представляет собой спуск по бугристому склону. Во время прохождения трассы каждый спортсмен должен совершить два прыжка с трамплинов. Победителями становятся участники, получившие за свое выступление наибольшее количество баллов. Судьи оценивают качество «обработки» бугров на трассе, качество и сложность прыжков. К сумме оценок, выставленных судьями, прибавляется оценка за скорость, определяемая по специальной формуле.-Качество видео: TVRip
Контейнер: AVI
Видео кодек: XviD
Аудио кодек: MP3
Видео: 720x400 (1.80:1), 25 fps, XviD build 50 ~1749 kbps avg, 0.24 bit/pixel
Аудио: 48 kHz, MPEG Layer 3, 2 ch, ~128.00 kbps avg
[url=http://pirat.ca/viewtopic.php?t=126745][/url]Фристайл. Расписание и результаты. Скачать.

Составы команд

Media Info

Общее
Формат : AVI
Формат/Информация : Audio Video Interleave
Размер файла : 970 Мбайт
Продолжительность : 1 ч. 11 м.
Общий поток : 1888 Кбит/сек
Программа кодирования : VirtualDubMod 1.5.10.2 (build 2540/release)
Библиотека кодирования : VirtualDubMod build 2540/release
Видео
Идентификатор : 0
Формат : MPEG-4 Visual
Профиль формата : Advanced [email protected]
Параметр BVOP формата : 2
Параметр QPel формата : Нет
Параметр GMC формата : Без точки перехода
Параметр матрицы формата : Default (H.263)
Идентификатор кодека : XVID
Идентификатор кодека/Подсказка : XviD
Продолжительность : 1 ч. 11 м.
Битрейт : 1750 Кбит/сек
Ширина : 720 пикселей
Высота : 400 пикселей
Соотношение сторон : 16:9
Частота кадров : 25,000 кадров/сек
Цветовое пространство : YUV
Субдискретизация насыщенности : 4:2:0
Битовая глубина : 8 бит
Тип развёртки : Прогрессивная
Метод сжатия : С потерями
Бит/(Пиксели*Кадры) : 0.243
Размер потока : 899 Мбайт (93%)
Библиотека кодирования : XviD 1.2.1 (UTC 2008-12-04)
Аудио
Идентификатор : 1
Формат : MPEG Audio
Версия формата : Version 1
Профиль формата : Layer 3
Идентификатор кодека : 55
Идентификатор кодека/Подсказка : MP3
Продолжительность : 1 ч. 11 м.
Вид битрейта : Постоянный
Битрейт : 128 Кбит/сек
Каналы : 2 канала
Частота : 48,0 КГц
Метод сжатия : С потерями
Размер потока : 65,8 Мбайт (7%)
Выравнивание : Соединение по промежуткам
Продолжительность промежутка : 40 мс. (1,00 видеокадр)
Время предзагрузки промежутка : 504 мс.
Библиотека кодирования : LAME3.99r
Настройки программы : -m s -V 4 -q 2 -lowpass 17 -b 128

Скриншоты

Яндекс.Метрика
Рейтинг@Mail.ru