Смерть на воде / Dead in the Water (Шелдон Уилсон) [2018, триллер, WEB-DL 1080p от OlLanDGroup | HDRezka Studio]

 

Создавать темы 27-Фев-2019 18:34

Смерть на воде / Dead in the WaterСмерть на воде / Dead in the Water
- Год выпуска: 2018
Страна: США
Производство: Dandelion Productions, Blue Ice Pictures, Out of Africa Entertainment
Жанр: Триллер-Режиссёр: Шелдон Уилсон
В ролях: Брэндон Оре, Никол Бушери, Nicole Fortuin, Бьянка Симон Мэнни, Скай Расселл, Таня ван Граан, Кристина Виссер, Эми Луиз Уилсон-Перевод: Профессиональный многоголосый | [HDRezka Studio]
Субтитры: Английские (SDH)
Реклама: Отсутствует-Описание: В центре сюжета находится корабль с женским экипажем, бороздящий просторы Тихого океана в поисках браконьеров, занимающихся незаконной добычей рыбы. Во время очередного преследования нарушителей, героини сталкиваются с неожиданной поломкой двигателя, но ситуация осложняется еще больше, когда они узнают о стремительно надвигающемся шторме. После этого женщины вылавливают из воды мужчину в бессознательном состоянии, оказавшегося в маленькой лодке за сотни миль от суши, но вскоре они понимают, что подняли на борт нечто невероятно опасное и смертоносное...--Качество: WEB-DL 1080p | AMZN Version |
Продолжительность: 01:27:12-Формат: MKV
Видео кодек: MPEG-4 AVC
Аудио кодек: AC3
Видео: 1920x1080 (16:9), 23,976 fps, x264 ~5 698 kbps avg, 0.115 bit/pixel
Аудио #1: 48 kHz, AC3 Dolby Digital, 2 (L,R) ch, ~192.00 kbps avg | RUS (HDRezka Studio)
Аудио #2: 48 kHz, E-AC3 Dolby Digital Plus, 3/2 (L,C,R,l,r) + LFE ch, ~640.00 kbps avg | ENG-Дата премьеры (мир): 27 октября 2018
Дата премьеры (РФ):
Цифровой релиз:
-Релиз от: -

MediaInfo

-Общее
Уникальный идентификатор : 110400894289143626505059226188174186305 (0x530E70567F8FE13AA01E6E317209D741)
Полное имя : F:OlLanDGroupDead.in.the.Water.2018.AMZN.WEB-DL(1080p).OlLanDGroup.mkv
Формат : Matroska
Версия формата : Version 4 / Version 2
Размер файла : 3,98 Гбайт
Продолжительность : 1 ч. 27 м.
Общий поток : 6531 Кбит/сек
Название фильма : Dead.in.the.Water.2018 #TorpedoUK#
Дата кодирования : UTC 2019-02-24 15:24:57
Программа кодирования : mkvmerge v29.0.0 ('Like It Or Not') 64-bit
Библиотека кодирования : libebml v1.3.6 + libmatroska v1.4.9
Видео
Идентификатор : 1
Формат : AVC
Формат/Информация : Advanced Video Codec
Профиль формата : [email protected]
Параметр CABAC формата : Да
Параметр ReFrames формата : 4 кадра
Идентификатор кодека : V_MPEG4/ISO/AVC
Продолжительность : 1 ч. 27 м.
Вид битрейта : Постоянный
Битрейт : 5698 Кбит/сек
Номинальный битрейт : 10000 Кбит/сек
Ширина : 1920 пикселей
Высота : 1080 пикселей
Соотношение сторон : 16:9
Режим частоты кадров : Постоянный
Частота кадров : 23,976 (24000/1001) кадра/сек
Цветовое пространство : YUV
Субдискретизация насыщенности : 4:2:0
Битовая глубина : 8 бит
Тип развёртки : Прогрессивная
Бит/(Пиксели*Кадры) : 0.115
Размер потока : 3,47 Гбайт (87%)
Default : Да
Forced : Нет
Цветовой диапазон : Limited
Основные цвета : BT.709
Характеристики трансфера : BT.709
Коэффициенты матрицы : BT.709
Аудио #1
Идентификатор : 2
Формат : AC-3
Формат/Информация : Audio Coding 3
Расширение режима : CM (complete main)
Параметр Endianness формата : Big
Идентификатор кодека : A_AC3
Продолжительность : 1 ч. 27 м.
Вид битрейта : Постоянный
Битрейт : 192 Кбит/сек
Каналы : 2 канала
Расположение каналов : Front: L R
Частота : 48,0 КГц
Частота кадров : 31,250 кадров/сек (1536 spf)
Битовая глубина : 16 бит
Метод сжатия : С потерями
Размер потока : 120 Мбайт (3%)
Заголовок : MVO [HDRezka Studio]
Язык : Russian
Default : Да
Forced : Нет
Аудио #2
Идентификатор : 3
Формат : E-AC-3
Формат/Информация : Enhanced Audio Coding 3
Параметр Endianness формата : Big
Идентификатор кодека : A_EAC3
Продолжительность : 1 ч. 27 м.
Вид битрейта : Постоянный
Битрейт : 640 Кбит/сек
Каналы : 6 каналов
Расположение каналов : Front: L C R, Side: L R, LFE
Частота : 48,0 КГц
Частота кадров : 187,500 кадров/сек (256 spf)
Метод сжатия : С потерями
Размер потока : 399 Мбайт (10%)
Заголовок : [Original]
Язык : English
Default : Нет
Forced : Нет
Текст
Идентификатор : 4
Формат : UTF-8
Идентификатор кодека : S_TEXT/UTF8
Идентификатор кодека/Информация : UTF-8 Plain Text
Продолжительность : 1 ч. 25 м.
Битрейт : 57 бит/сек
Count of elements : 1856
Размер потока : 36,2 Кбайт (0%)
Заголовок : SDH
Язык : English
Default : Нет
Forced : Нет
--

Скриншоты

--
-
Рейтинг@Mail.ru