Экстаз / Climax (Гаспар Ноэ) [2018, мюзикл, ужасы, драма, детектив, триллер, BDRip-AVC от OlLanDGroup | HDRezka Studio]

 

Создавать темы 27-Фев-2019 18:28

Экстаз / ClimaxЭкстаз / Climax
- Год выпуска: 2018
Страна: Франция, Бельгия, США
Производство: arte France Cinéma, BE TV, Wild Bunch
Жанр: Мюзикл, ужасы, драма, детектив, триллер-Режиссёр: Гаспар Ноэ
В ролях: София Бутелла, Ромен Гийермик, Сухейла Якуб, Смайл Кидди, Клод Гаян Малл, Жизелль Палмер, Тейлор Кастл, Теа Карла Шотт, Шерлин Темпл, Леа Вламос-Перевод: Профессиональный многоголосый | [HDRezka Studio]
Субтитры: Русские (полные), Английские (полные)
Реклама: Отсутствует-Описание: Рождение и смерть — невероятный опыт, а жизнь — ускользающее наслаждение. Выпускники академии современного танца решают устроить прощальную вечеринку. Однако таинственным образом под нарастающий ритм музыки их всех охватывает эйфория, которой невозможно сопротивляться. Теперь балом правит зловещий хаос и спасение можно найти, только отдав свою душу танцу. Для одних эта ночь обернется суровым испытанием, а другие познают настоящий экстаз…--Качество: BDRip-AVC | BDRemux | Climax.2018.1080p.Blu-ray.REMUX.AVC.DTS-HD.MA.5.1-playBD
Продолжительность: 01:36:30-Формат: MKV
Видео кодек: MPEG-4 AVC
Аудио кодек: AC3
Видео: 1024x430 (2.40:1), 23,976 fps, x264 ~1 839 kbps avg, 0.174 bit/pixel
Аудио #1: 48 kHz, AC3 Dolby Digital, 2 (L,R) ch, ~192.00 kbps avg | RUS (HDRezka Studio)
Аудио #2: 48 kHz, AC3 Dolby Digital, 3/2 (L,C,R,l,r) + LFE ch, ~448.00 kbps avg | FRE-Дата премьеры (мир): 13 мая 2018
Дата премьеры (РФ): 11 октября 2018, «Вольга»
Цифровой релиз:
-Релиз от: -

MediaInfo

-Общее
Уникальный идентификатор : 167735173356739545582059157506062009444 (0x7E309E8B10CC1AC41A764D3B5997C464)
Полное имя : F:OlLanDGroupClimax.2018.BDRip(AVC).OlLanDGroup.mkv
Формат : Matroska
Версия формата : Version 4 / Version 2
Размер файла : 1,67 Гбайт
Продолжительность : 1 ч. 36 м.
Общий поток : 2480 Кбит/сек
Название фильма : Climax.2018 #TorpedoUK#
Дата кодирования : UTC 2019-02-24 10:30:05
Программа кодирования : mkvmerge v29.0.0 ('Like It Or Not') 64-bit
Библиотека кодирования : libebml v1.3.6 + libmatroska v1.4.9
Видео
Идентификатор : 1
Формат : AVC
Формат/Информация : Advanced Video Codec
Профиль формата : [email protected]
Параметр CABAC формата : Да
Параметр ReFrames формата : 10 кадров
Идентификатор кодека : V_MPEG4/ISO/AVC
Продолжительность : 1 ч. 36 м.
Битрейт : 1839 Кбит/сек
Ширина : 1024 пикселя
Высота : 430 пикселей
Соотношение сторон : 2,40:1
Режим частоты кадров : Постоянный
Частота кадров : 23,976 (24000/1001) кадра/сек
Цветовое пространство : YUV
Субдискретизация насыщенности : 4:2:0
Битовая глубина : 8 бит
Тип развёртки : Прогрессивная
Бит/(Пиксели*Кадры) : 0.174
Размер потока : 1,24 Гбайт (74%)
Библиотека кодирования : x264 core 146 r2538 121396c
Настройки программы : cabac=1 / ref=10 / deblock=1:-2:-3 / analyse=0x3:0x113 / me=umh / subme=11 / psy=1 / psy_rd=0.95:0.07 / mixed_ref=1 / me_range=48 / chroma_me=1 / trellis=2 / 8x8dct=1 / cqm=0 / deadzone=21,11 / fast_pskip=1 / chroma_qp_offset=-3 / threads=6 / lookahead_threads=1 / sliced_threads=0 / nr=0 / decimate=1 / interlaced=0 / bluray_compat=0 / constrained_intra=0 / bframes=11 / b_pyramid=2 / b_adapt=2 / b_bias=0 / direct=3 / weightb=1 / open_gop=0 / weightp=2 / keyint=240 / keyint_min=23 / scenecut=40 / intra_refresh=0 / rc_lookahead=40 / rc=2pass / mbtree=0 / bitrate=1839 / ratetol=1.0 / qcomp=0.60 / qpmin=0 / qpmax=69 / qpstep=4 / cplxblur=20.0 / qblur=0.5 / vbv_maxrate=50000 / vbv_bufsize=62500 / nal_hrd=none / filler=0 / ip_ratio=1.40 / pb_ratio=1.30 / aq=1:1.00
Язык : English
Default : Да
Forced : Нет
Аудио #1
Идентификатор : 2
Формат : AC-3
Формат/Информация : Audio Coding 3
Расширение режима : CM (complete main)
Параметр Endianness формата : Big
Идентификатор кодека : A_AC3
Продолжительность : 1 ч. 36 м.
Вид битрейта : Постоянный
Битрейт : 192 Кбит/сек
Каналы : 2 канала
Расположение каналов : Front: L R
Частота : 48,0 КГц
Частота кадров : 31,250 кадров/сек (1536 spf)
Битовая глубина : 16 бит
Метод сжатия : С потерями
Размер потока : 133 Мбайт (8%)
Заголовок : MVO [HDRezka Studio]
Язык : Russian
Default : Да
Forced : Нет
Аудио #2
Идентификатор : 3
Формат : AC-3
Формат/Информация : Audio Coding 3
Расширение режима : CM (complete main)
Параметр Endianness формата : Big
Идентификатор кодека : A_AC3
Продолжительность : 1 ч. 36 м.
Вид битрейта : Постоянный
Битрейт : 448 Кбит/сек
Каналы : 6 каналов
Расположение каналов : Front: L C R, Side: L R, LFE
Частота : 48,0 КГц
Частота кадров : 31,250 кадров/сек (1536 spf)
Битовая глубина : 16 бит
Метод сжатия : С потерями
Размер потока : 309 Мбайт (18%)
Заголовок : [Original]
Язык : French
Default : Нет
Forced : Нет
Текст #1
Идентификатор : 4
Формат : UTF-8
Идентификатор кодека : S_TEXT/UTF8
Идентификатор кодека/Информация : UTF-8 Plain Text
Продолжительность : 1 ч. 32 м.
Битрейт : 56 бит/сек
Count of elements : 1117
Размер потока : 38,3 Кбайт (0%)
Заголовок : Full
Язык : Russian
Default : Нет
Forced : Нет
Текст #2
Идентификатор : 5
Формат : UTF-8
Идентификатор кодека : S_TEXT/UTF8
Идентификатор кодека/Информация : UTF-8 Plain Text
Продолжительность : 1 ч. 32 м.
Битрейт : 28 бит/сек
Count of elements : 1073
Размер потока : 19,4 Кбайт (0%)
Заголовок : Full
Язык : English
Default : Нет
Forced : Нет
Меню
00:00:00.000 : en:00:00:00.000
00:09:34.783 : en:00:09:34.783
00:15:17.708 : en:00:15:17.708
00:23:33.621 : en:00:23:33.621
00:31:16.416 : en:00:31:16.416
00:37:39.299 : en:00:37:39.299
00:47:18.419 : en:00:47:18.419
00:54:03.198 : en:00:54:03.198
01:04:59.354 : en:01:04:59.354
01:11:01.966 : en:01:11:01.966
01:20:35.622 : en:01:20:35.622
01:30:17.037 : en:01:30:17.037
--

Скриншоты

--
-
Рейтинг@Mail.ru