Суспирия / Suspiria (2018) BDRip 1080p | iTunes

 

Создавать темы 06-Фев-2019 02:58

Суспирия / SuspiriaИнформация о фильме
Название: Суспирия
Оригинальное название: Suspiria
Год выхода: 2018
Жанр: Ужасы, фэнтези, триллер, детектив
Страна: Италия, США
Перевод: Дублированный | iTunes
Продолжительность: 02:32:10
Режиссер: Лука Гуаданьино
В ролях: Дакота Джонсон, Тильда Суинтон, Дорис Хик, Малгоша Бела, Хлоя Грейс Морец, Ангела Винклер, Ванда Каприоло, Алек Век, Джессика Батю, Елена Фокина и др.
О фильме: Молодая американка приезжает в Берлин, чтобы присоединиться к знаменитой танцевальной труппе. Однако в стенах студии девушка внезапно обнаруживает нечто зловещее и сверхъестественное. Вскоре она понимает, что станет следующей жертвой, если не успеет раскрыть тайну проклятия, которое окутало легендарную танцевальную академию.

Файл
Качество: BDRip 1080p
Видео: MPEG-4 AVC, 1920x1038, 8515 kbps, 24,000 fps
Звук#1: русский, AC3, 5.1 ch, 48 kHz, 384 kbps | iTunes
Звук#2: английский, AC3, 5.1 ch, 48 kHz, 448 kbps | оригинал
Субтитры: русские (полные (FOCS | Dark_Alice)), английские (хардсаб на немецкую речь, полные, SDH)

MI

General
Уникальный идентификатор : 174979721300236538652112498536007624179 (0x83A3DE55718FB965A6DAB783476C65F3)
Полное имя : E:TorrentSuspiria2018BDRip1080p.mkv
Формат : Matroska
Версия формата : Version 4 / Version 2
Размер файла : 9.94 GiB
Продолжительность : 2 h 32 min
Общий поток : 9 350 kb/s
Дата кодирования : UTC 2019-02-04 23:25:23
Программа кодирования : mkvmerge v9.5.0 ('Quiet Fire') 64bit
Библиотека кодирования : libebml v1.3.4 + libmatroska v1.4.5
Video
Идентификатор : 1
Формат : AVC
Формат/Информация : Advanced Video Codec
Профиль формата : [email protected]
Настройки формата : CABAC / 4 Ref Frames
Параметр CABAC формата : Yes
Параметр RefFrames формата : 4 frames
Идентификатор кодека : V_MPEG4/ISO/AVC
Продолжительность : 2 h 32 min
Битрейт : 8 515 kb/s
Ширина : 1 920 pixels
Высота : 1 038 pixels
Соотношение сторон : 1.85:1
Режим частоты кадров : Constant
Частота кадров : 24.000 FPS
Цветовое пространство : YUV
Субдискретизация насыщенности : 4:2:0
Битовая глубина : 8 bits
Тип развёртки : Progressive
Бит/(Пиксели*Кадры) : 0.178
Размер потока : 9.05 GiB (91%)
Библиотека кодирования : x264 core 157 r2935 545de2f
Настройки программы : cabac=1 / ref=4 / deblock=1:-1:-1 / analyse=0x3:0x113 / me=umh / subme=11 / psy=1 / psy_rd=1.00:0.00 / mixed_ref=1 / me_range=32 / chroma_me=1 / trellis=2 / 8x8dct=1 / cqm=0 / deadzone=21,11 / fast_pskip=0 / chroma_qp_offset=-2 / threads=9 / lookahead_threads=2 / sliced_threads=0 / nr=0 / decimate=0 / interlaced=0 / bluray_compat=0 / constrained_intra=0 / bframes=12 / b_pyramid=2 / b_adapt=2 / b_bias=0 / direct=3 / weightb=1 / open_gop=0 / weightp=2 / keyint=240 / keyint_min=24 / scenecut=40 / intra_refresh=0 / rc_lookahead=120 / rc=2pass / mbtree=0 / bitrate=8515 / ratetol=1.0 / qcomp=0.70 / qpmin=0 / qpmax=69 / qpstep=4 / cplxblur=20.0 / qblur=0.5 / vbv_maxrate=50000 / vbv_bufsize=62500 / nal_hrd=none / filler=0 / ip_ratio=1.40 / pb_ratio=1.30 / aq=2:0.90
Язык : English
Default : Yes
Forced : No
Audio #1
Идентификатор : 2
Формат : AC-3
Формат/Информация : Audio Coding 3
Идентификатор кодека : A_AC3
Продолжительность : 2 h 32 min
Вид битрейта : Constant
Битрейт : 384 kb/s
Каналы : 6 channels
Расположение каналов : Front: L C R, Side: L R, LFE
Частота : 48.0 kHz
Частота кадров : 31.250 FPS (1536 SPF)
Битовая глубина : 16 bits
Метод сжатия : Lossy
Размер потока : 418 MiB (4%)
Язык : Russian
Default : Yes
Forced : No
Audio #2
Идентификатор : 3
Формат : AC-3
Формат/Информация : Audio Coding 3
Идентификатор кодека : A_AC3
Продолжительность : 2 h 32 min
Вид битрейта : Constant
Битрейт : 448 kb/s
Каналы : 6 channels
Расположение каналов : Front: L C R, Side: L R, LFE
Частота : 48.0 kHz
Частота кадров : 31.250 FPS (1536 SPF)
Битовая глубина : 16 bits
Метод сжатия : Lossy
Размер потока : 488 MiB (5%)
Язык : English
Default : No
Forced : No
Text #1
Идентификатор : 4
Формат : UTF-8
Идентификатор кодека : S_TEXT/UTF8
Идентификатор кодека/Информация : UTF-8 Plain Text
Продолжительность : 2 h 24 min
Битрейт : 52 b/s
ElementCount : 1287
Размер потока : 55.9 KiB (0%)
Заголовок : rusFull
Язык : Russian
Default : No
Forced : No
Text #2
Идентификатор : 5
Формат : UTF-8
Идентификатор кодека : S_TEXT/UTF8
Идентификатор кодека/Информация : UTF-8 Plain Text
Продолжительность : 2 h 31 min
Битрейт : 23 b/s
ElementCount : 1080
Размер потока : 25.6 KiB (0%)
Заголовок : engFull
Язык : English
Default : No
Forced : No
Text #3
Идентификатор : 6
Формат : UTF-8
Идентификатор кодека : S_TEXT/UTF8
Идентификатор кодека/Информация : UTF-8 Plain Text
Продолжительность : 2 h 31 min
Битрейт : 33 b/s
ElementCount : 1604
Размер потока : 36.8 KiB (0%)
Заголовок : engSDH
Язык : English
Default : No
Forced : No
Menu
00:00:00.000 : :Chapter 01
00:11:04.875 : :Chapter 02
00:21:12.583 : :Chapter 03
00:33:40.458 : :Chapter 04
00:46:58.708 : :Chapter 05
00:58:40.458 : :Chapter 06
01:07:54.000 : :Chapter 07
01:19:55.708 : :Chapter 08
01:30:00.750 : :Chapter 09
01:40:24.708 : :Chapter 10
01:52:17.625 : :Chapter 11
02:08:33.041 : :Chapter 12
02:27:19.458 : :Chapter 13

Скриншоты

Рейтинг@Mail.ru