Референт [01-04 из 04] (2019) WEBRip

 

Post 04-Feb-2019 19:59

--Референт [01-04 из 04] (2019) WEBRip --Год выхода: 2019
Жанр: Мелодрама
Режиссер: Павел Тупик
В ролях: Елена Шилова (II), Алексей Зубков, Дмитрий Сова, Алла Масленникова, Людмила Смородина--О фильме:
Узнав об измене мужа, Марина решает начать новую жизнь. Но квартира, в которой они с Андреем и их сыном Глебом провели лучшие годы, принадлежит свекрови Елене Константиновне, которая невестку терпеть не может. Да и в свои двадцать семь Марина в совершенстве освоила лишь профессию хранительницы домашнего очага. А свекровь подговаривает Андрея лишить Марину ее главной жизненной ценности - сына....--Страна: Россия, Украина
Студия: Кинокомпания "Упс"
Продолжительность: 4 х 00:44:40
Перевод: Не требуется
Файл
Кодек: XviD
Качество: WEBRip
Видео: XviD, ~ 1671 Кбит/с, 720x400, 25 кадр/с
Звук: AC3, 2 ch, 192 Кбит/с

Скриншоты

MediaInfo

General
Complete name : C:01.Референт.(2019).WEBRip.by.Nicodem.Files-x.avi
Format : AVI
Format/Info : Audio Video Interleave
File size : 600 MiB
Duration : 44mn 49s
Overall bit rate : 1 872 Kbps
Writing application : VirtualDubMod 1.5.10.3 | www.virtualdub-fr.org || (build 2550/release)
Writing library : VirtualDubMod build 2550/release
Video
ID : 0
Format : MPEG-4 Visual
Format profile : Advanced [email protected]
Format settings, BVOP : 1
Format settings, QPel : No
Format settings, GMC : No warppoints
Format settings, Matrix : Custom
Codec ID : XVID
Codec ID/Hint : XviD
Duration : 44mn 49s
Bit rate : 1 671 Kbps
Width : 720 pixels
Height : 400 pixels
Display aspect ratio : 16:9
Frame rate : 25.000 fps
Color space : YUV
Chroma subsampling : 4:2:0
Bit depth : 8 bits
Scan type : Progressive
Compression mode : Lossy
Bits/(Pixel*Frame) : 0.232
Stream size : 536 MiB (89%)
Writing library : XviD 73
Audio
ID : 1
Format : AC-3
Format/Info : Audio Coding 3
Mode extension : CM (complete main)
Codec ID : 2000
Duration : 44mn 49s
Bit rate mode : Constant
Bit rate : 192 Kbps
Channel(s) : 2 channels
Channel positions : Front: L R
Sampling rate : 48.0 KHz
Bit depth : 16 bits
Compression mode : Lossy
Stream size : 61.6 MiB (10%)
Alignment : Split accross interleaves
Interleave, duration : 40 ms (1.00 video frame)
Interleave, preload duration : 500 ms
Рейтинг@Mail.ru