[ Сегодня на трекере фрилич! Идет свободное скачивание без начисления Download ]

Nat Geo Wild: Игры львов / Game of Lions (2013,Документальный HDTVRip) от Leo.pard | D

 

Создавать темы 09-Фев-2014 12:53

Игры львов
Game of Lions- Год выпуска: 2013
Страна: США
Жанр: Документальный
Продолжительность: 00:43:59
Перевод: Профессиональный (дублированный) Игорь Тарадайкин / АРК·ТВ
Русские субтитры: нет-Режиссеры: Беверли Жубер / Beverly Joubert, Дерек Жубер / Dereck Joubert
Описание: Лишь один из восьми львов доживает до взросления, и самцы вступают в "игру львов", когда каждое семейство борется за выживание и право возглавить прайд. Те, кто не выживает, - это благородные отпрыски, которых судьба или естественный отбор определяют как тупиковую ветвь их семейного дерева. Каждый же выживший получает жизнь ценой тяжелых битв, выигранных у голода и более крупных самцов.
Следите за самцом льва с детства до его превращения в вожака, который охраняет свою территорию и опекает прайд в африканской саванне.-Автор рипа: Leo.pard
Исходник: HDTV 1080i Спасибо LeXa 84!-Kачество: HDTVRip
Формат: AVI
Видео: XviD, 720x400 (16:9), 2024 Kbps, 25 fps
Аудио: MP2, 192 Kbps, 48 KHz, 2 channels
Сэмпл: http://multi-up.com/949187

MediaInfo

General
Complete name : D:Igry.l'vov.2013.HDTVRip.avi
Format : AVI
Format/Info : Audio Video Interleave
File size : 700 MiB
Duration : 43mn 59s
Overall bit rate : 2 226 Kbps
Writing application : VirtualDubMod 1.5.10.3 | www.virtualdub-fr.org || (build 2550/release)
Writing library : VirtualDubMod build 2550/release
Video
ID : 0
Format : MPEG-4 Visual
Format profile : Advanced [email protected]
Format settings, BVOP : 1
Format settings, QPel : No
Format settings, GMC : No warppoints
Format settings, Matrix : Custom
Codec ID : XVID
Codec ID/Hint : XviD
Duration : 43mn 59s
Bit rate : 2 024 Kbps
Width : 720 pixels
Height : 400 pixels
Display aspect ratio : 16:9
Frame rate : 25.000 fps
Color space : YUV
Chroma subsampling : 4:2:0
Bit depth : 8 bits
Scan type : Progressive
Compression mode : Lossy
Bits/(Pixel*Frame) : 0.281
Stream size : 637 MiB (91%)
Writing library : XviD 73
Audio
ID : 1
Format : MPEG Audio
Format version : Version 1
Format profile : Layer 2
Codec ID : 50
Duration : 43mn 59s
Bit rate mode : Constant
Bit rate : 192 Kbps
Channel(s) : 2 channels
Sampling rate : 48.0 KHz
Compression mode : Lossy
Stream size : 60.4 MiB (9%)
Alignment : Aligned on interleaves
Interleave, duration : 40 ms (1.00 video frame)
Interleave, preload duration : 504 ms

Скриншоты

Создавать темы 09-Фев-2014 13:16 (спустя 23 минуты)

Топик был перенесен из форума •Документалистика и Телепередачи: в форум National Geographic
vladios13
Яндекс.Метрика
Рейтинг@Mail.ru