Ёлки Последние (2018) WEB-DL 1080p

 

Создавать темы 24-Янв-2019 07:19

Ёлки Последние-Производство: Россия / "Фонд кино"
Жанр: Комедия
Режиссер: Тимур Бекмамбетов, Егор Баранов, Анна Пармас, Александр Котт
Актеры: Иван Ургант, Сергей Светлаков, Дмитрий Нагиев, Елена Яковлева, Юлия Александрова, Даниил Вахрушев, Александр Головин, Александр Домогаров мл., Юрий Кузнецов, Марк Богатырёв
Описание:
«Ёлки Последние» станут самыми трогательными, добрыми и волшебными из всех, потому что любимые герои будут прощаться со зрителями. В киноальманах войдет пять новогодних историй. В новелле «Сосны» миллениал поможет своему брутальному отчиму дяде Юре сделать предложение руки и сердца. В «Братьях» неразлучные друзья Боря и Женя вновь окажутся на грани расставания, потому что Женя собирается вернуться в Якутск. Лыжник и сноубордист перевернут весь город ради улыбки одной красавицы в новелле «Ресторан быстрого знакомства». «Вокзал на троих» расскажет историю о простой девушке из Воронежа, отправившейся в погоню за своим счастьем - столичным актером Комаровским, а в новелле «Вредный дедушка» Снегурочка поедет спасать одинокого, но очень ворчливого дедушку.

Дата российской премьеры: 27 декабря 2018г.
Продолжительность: ~01:36:36
Качество видео: WEB-DL (1080p)
Видео: AVC/H.264, 1920x804 (16:9), ~4428 kbps, 24.00 fps
Аудио: AC3, DD 5.1, 384 Kbps (iTunes)
Субтитры: English (UTF-8)

Mediainfo:

General
Unique ID : 252877752553371949625998366412004822592 (0xBE3E7BCCA1D32ADFBE827923BC7E8E40)
Complete name : E:\YOLKI_POSLEDNIE_WEB_DL_1080p-BLUEBIRD.mkv
Format : Matroska
Format version : Version 4 / Version 2
File size : 3.31 GiB
Duration : 1 h 36 min
Overall bit rate : 4 909 kb/s
Movie name : YOLKI_POSLEDNIE_WEB_DL_1080p-BLUEBIRD
Encoded date : UTC 2019-01-23 19:44:52
Writing application : mkvmerge v6.9.1 ('Blue Panther') 32bit built on Apr 18 2014 18:15:44
Writing library : libebml v1.3.0 + libmatroska v1.4.1
Cover : Yes
Attachments : cover.png
Video
ID : 1
Format : AVC
Format/Info : Advanced Video Codec
Format profile : [email protected]
Format settings, CABAC : Yes
Format settings, ReFrames : 5 frames
Codec ID : V_MPEG4/ISO/AVC
Duration : 1 h 36 min
Bit rate : 4 428 kb/s
Width : 1 920 pixels
Height : 804 pixels
Display aspect ratio : 2.40:1
Frame rate mode : Constant
Frame rate : 24.000 FPS
Color space : YUV
Chroma subsampling : 4:2:0
Bit depth : 8 bits
Scan type : Progressive
Bits/(Pixel*Frame) : 0.120
Stream size : 2.99 GiB (90%)
Title : YOLKI_POSLEDNIE_WEB_DL_1080p-BLUEBIRD
Language : English
Default : Yes
Forced : No
Color range : Limited
Color primaries : BT.709
Transfer characteristics : BT.709
Matrix coefficients : BT.709
Audio
ID : 2
Format : AC-3
Format/Info : Audio Coding 3
Format settings, Endianness : Big
Codec ID : A_AC3
Duration : 1 h 36 min
Bit rate mode : Constant
Bit rate : 384 kb/s
Channel(s) : 6 channels
Channel positions : Front: L C R, Side: L R, LFE
Sampling rate : 48.0 kHz
Frame rate : 31.250 FPS (1536 spf)
Bit depth : 16 bits
Compression mode : Lossy
Stream size : 265 MiB (8%)
Title : [ORIGINAL] DD 5.1 @ 384 kbps (iTunes)
Language : Russian
Service kind : Complete Main
Default : Yes
Forced : No
Text
ID : 3
Format : UTF-8
Codec ID : S_TEXT/UTF8
Codec ID/Info : UTF-8 Plain Text
Title : Full-length
Language : English
Default : No
Forced : No
Menu
00:00:00.000 : en:Глава 1
00:07:17.000 : en:Глава 2
00:14:45.458 : en:Глава 3
00:20:12.541 : en:Глава 4
00:28:49.957 : en:Глава 5
00:35:37.957 : en:Глава 6
00:41:18.748 : en:Глава 7
00:47:14.998 : en:Глава 8
00:53:33.414 : en:Глава 9
00:59:39.039 : en:Глава 10
01:06:25.622 : en:Глава 11
01:12:44.163 : en:Глава 12
01:19:19.163 : en:Глава 13
01:25:50.913 : en:Глава 14
Скриншоты:
Рейтинг@Mail.ru