[ Сегодня на трекере фрилич! Идет свободное скачивание без начисления Download ]

Добро пожаловать в джунгли / Welcome to the Jungle (Роб Мелцер / Rob Meltzer) [2013 г., Комедия, HDRip] DVO

 

Создавать темы 08-Фев-2014 23:00

-Добро пожаловать в джунгли / Welcome to the Jungle--
Производство: Пуэрто Рико, США, Великобритания
Год выпуска: 2013
Жанр: Комедия
Перевод: Двуголосый закадровый, любительский
Дата мировой премьеры: 27 апреля 2013
Продолжительность: 01:34:13
Режиссер: Роб Мелцер / Rob Meltzer-В ролях:
Адам Броди, Жан-Клод Ван Дамм, Роб Хюбел, Кристен Шаал, Меган Бун, Деннис Хейсбёрт, Бьянка Бри, Эрик Эдельштейн, Роберт Питерс, Аарон Такахаси-Описание:
Персонал дизайнерской фирмы отправляется в отпуск на тропический остров. Коллективный отдых заканчивается самым настоящим хаосом, когда герои сталкиваются с первыми серьезными трудностями.
-
Качество видео: HDRip
Контейнер: AVI
Видео кодек: XviD
Аудио кодек: AC-3
Видео: 720x304; 1620 kbps; 23.976 fps; 0.309 Bit/Pixel
Аудио: AC-3; 448 kbps; 6 ch; 48.0 KHz

Media info

General
Complete name : E:\Torrents!!!!!!!!!!!!!!!!!!!!!\Dobro.Pojalovat.v.Djungli.2013.P2.HDRip.1400MB.avi
Format : AVI
Format/Info : Audio Video Interleave
File size : 1.37 GiB
Duration : 1h 34mn
Overall bit rate : 2 077 Kbps
Writing application : VirtualDubMod 1.5.10.2 (build 2540/release)
Writing library : VirtualDubMod build 2540/release
Video #0
ID : 0
Format : MPEG-4 Visual
Format profile : Advanced [email protected]
Format settings, BVOP : 2
Format settings, QPel : No
Format settings, GMC : No warppoints
Format settings, Matrix : Default (MPEG)
Codec ID : XVID
Codec ID/Hint : XviD
Duration : 1h 34mn
Bit rate : 1 620 Kbps
Width : 720 pixels
Height : 304 pixels
Display aspect ratio : 2.35:1
Frame rate : 23.976 fps
Color space : YUV
Chroma subsampling : 4:2:0
Bit depth : 8 bits
Scan type : Progressive
Compression mode : Lossy
Bits/(Pixel*Frame) : 0.309
Stream size : 1.07 GiB (78%)
Writing library : XviD 1.2.1 (UTC 2008-12-04)
Audio #1
ID : 1
Format : AC-3
Format/Info : Audio Coding 3
Mode extension : CM (complete main)
Format settings, Endianness : Big
Codec ID : 2000
Duration : 1h 34mn
Bit rate mode : Constant
Bit rate : 448 Kbps
Channel count : 6 channels
Channel positions : Front: L C R, Side: L R, LFE
Sampling rate : 48.0 KHz
Bit depth : 16 bits
Compression mode : Lossy
Stream size : 302 MiB (22%)
Alignment : Split accross interleaves
Interleave, duration : 42 ms (1.00 video frame)
Interleave, preload duration : 500 ms
Яндекс.Метрика
Рейтинг@Mail.ru