Всё или ничего (Дмитрий Суворов) [2018, комедия, приключения, WEB-DLRip от GeneralFilm | iTunes]

 

Создавать темы 06-Янв-2019 16:43

Всё или ничего
Информация о фильме- Оригинальное название: Всё или ничего
Год выпуска: 2018
Жанр: Комедия, приключения
Выпущено: Россия, «ССБ КИНО»
Режиссер: Дмитрий Суворов
В ролях: Роман Курцын, Артур Смольянинов, Данила Якушев, Кирилл Каганович, Юрий Стоянов, Андрей Стоянов, Сергей Бурунов, Владимир Епифанцев, Роман Мадянов, Екатерина Соломатина-О фильме: Офисный планктон — опасный зверь, если его разозлить. Трое менеджеров-неудачников объединяются в почти преступную группировку в попытке свергнуть обнаглевшего начальника, который безбожно обворовывает компанию. Друзья разрабатывают экстремальный план, как выкрасть 50 миллионов у босса и восстановить справедливость. Но как это бывает у новичков — всё идёт не по плану. Настоящим хозяином мешка с деньгами оказывается совсем не тот, на кого охотились герои — и вот тут у них начинаются реальные проблемы с криминальным миром.--Качество: WEB-DLRip
Видео: XviD build 73, 720x304 (2.37:1), 24.000 fps, 1036 Kbps (0.197 bit/pixel)
Аудио: 48.0 kHz, MP3, 2/0 ch, 128 kbps
Продолжительность: 01:28:46
Перевод: Не требуется
Cубтитры: нет-

Скриншоты

-
-
-

MediaInfo

-General
Complete name : D:Vsje.Ili.Nichego.2018.WEB-DLRip.GeneralFilm.avi
Format : AVI
Format/Info : Audio Video Interleave
File size : 745 MiB
Duration : 1 h 28 min
Overall bit rate : 1 173 kb/s
Writing application : VirtualDubMod 1.5.10.3 | www.virtualdub-fr.org || (build 2550/release)
Writing library : VirtualDubMod build 2550/release
Video
ID : 0
Format : MPEG-4 Visual
Format profile : Advanced [email protected]
Format settings : BVOP1 / Custom Matrix
Format settings, BVOP : 1
Format settings, QPel : No
Format settings, GMC : No warppoints
Format settings, Matrix : Custom
Codec ID : XVID
Codec ID/Hint : XviD
Duration : 1 h 28 min
Bit rate : 1 036 kb/s
Width : 720 pixels
Height : 304 pixels
Display aspect ratio : 2.35:1
Frame rate : 24.000 FPS
Color space : YUV
Chroma subsampling : 4:2:0
Bit depth : 8 bits
Scan type : Progressive
Compression mode : Lossy
Bits/(Pixel*Frame) : 0.197
Stream size : 657 MiB (88%)
Writing library : XviD 73
Audio
ID : 1
Format : MPEG Audio
Format version : Version 1
Format profile : Layer 3
Codec ID : 55
Codec ID/Hint : MP3
Duration : 1 h 28 min
Bit rate mode : Constant
Bit rate : 128 kb/s
Channel(s) : 2 channels
Sampling rate : 48.0 kHz
Frame rate : 41.667 FPS (1152 SPF)
Compression mode : Lossy
Stream size : 81.3 MiB (11%)
Alignment : Aligned on interleaves
Interleave, duration : 42 ms (1.00 video frame)
Interleave, preload duratio : 504 ms
Writing library : LAME3.99r
Encoding settings : -m s -V 4 -q 2 -lowpass 17 -b 128
--Релиз от: -
Рейтинг@Mail.ru