Дневник Олимпиады. (1 выпуск) - XXII Зимние Олимпийские игры / Россия, Россия HD [2014 г., Олимпиада, HDTVRip]

 

Создавать темы 08-Фев-2014 16:12

-Дневник Олимпиады. (1 выпуск) - XXII Зимние Олимпийские игры-- Год выпуска: 2014 г.
Вид спорта: Олимпиада
Продолжительность: 00:58:44
Комментарий: Не требуется
Комментатор: Дмитрий Губерниев, Анастасия Чернобровина
Язык комментариев: русский-Описание: С 7 по 23 февраля город Сочи примет Зимние Олимпийские игры. Это станет главным спортивным событием года в жизни нашей страны. Нас ожидает масса ярких эмоций и впечатлений, восторг и радость от побед. Миллионы болельщиков будут следить за баталиями, которые будут проходить в 15 олимпийских видах спорта на спортивных аренах в южном городе.-Качество видео: HDTVRip
Контейнер: AVI
Видео кодек: XviD
Аудио кодек: AC3
Видео: 720x400, 25 fps, 1897 kbps avg, 0.263 bit/pixel
Аудио: 48 kHz, AC3 Dolby Digital, 2 (L,R) ch, ~192.00 kbps avg-

Media Info

Общее
Полное имя : C:\Users\Ромик\Documents\Олимпиада\Olimp.igr.Dnevnik.Olimpiady.01.2014.02.07.HDTVRip.[pirat.ca].avi
Формат : AVI
Формат/Информация : Audio Video Interleave
Размер файла : 881 Мбайт
Продолжительность : 58 м.
Общий поток : 2098 Кбит/сек
Библиотека кодирования : VirtualDub build 32507/release
Видео
Идентификатор : 0
Формат : MPEG-4 Visual
Профиль формата : Advanced [email protected]
Параметр BVOP формата : 2
Параметр QPel формата : Нет
Параметр GMC формата : Без точки перехода
Параметр матрицы формата : Default (H.263)
Режим смешивания : Сжатый битовый поток
Идентификатор кодека : XVID
Идентификатор кодека/Подсказка : XviD
Продолжительность : 58 м.
Битрейт : 1897 Кбит/сек
Ширина : 720 пикселей
Высота : 400 пикселей
Соотношение сторон : 16:9
Частота кадров : 25,000 кадров/сек
Цветовое пространство : YUV
Субдискретизация насыщенности : 4:2:0
Битовая глубина : 8 бит
Тип развёртки : Прогрессивная
Метод сжатия : С потерями
Бит/(Пиксели*Кадры) : 0.263
Размер потока : 796 Мбайт (90%)
Библиотека кодирования : XviD 1.1.2 (UTC 2006-11-01)
Аудио
Идентификатор : 1
Формат : AC-3
Формат/Информация : Audio Coding 3
Расширение режима : CM (complete main)
Параметр Endianness формата : Big
Идентификатор кодека : 2000
Продолжительность : 58 м.
Вид битрейта : Постоянный
Битрейт : 192 Кбит/сек
Каналы : 2 канала
Расположение каналов : Front: L R
Частота : 48,0 КГц
Битовая глубина : 16 бит
Метод сжатия : С потерями
Размер потока : 80,6 Мбайт (9%)
Выравнивание : Разделение по промежуткам
Продолжительность промежутка : 40 мс. (1,00 видеокадр)
Время предзагрузки промежутка : 512 мс.
-

Скриншоты

-
Яндекс.Метрика
Рейтинг@Mail.ru