[ Сегодня на трекере фрилич! Идет свободное скачивание без начисления Download ]

Андроид-полицейский / Android Cop (Марк Аткинс / Mark Atkins) [2014 г., фантастика, боевик, HDRip] VO (VANO)

 

Создавать темы 08-Фев-2014 16:10

-Андроид-полицейский / Android Cop-- Производство: США
Год выпуска: 2014 г.
Жанр: фантастика, боевик
Продолжительность: 01:28:34
Мировая премьера: 4 февраля 2014
Перевод: Любительский (одноголосый, закадровый) [VANO]-Режиссер: Марк Аткинс / Mark Atkins-В ролях: Майкл Джей Уайт, Чарльз С. Даттон, Кадим Хардисон, Рэнди Уэйн, Ларисса Вереса, Каиви Лайман, Джей Гиллеспи, Морган Бенуа, Эдриэнн МакКуин, Маркус Широк ...-Описание: Действие разворачивается в недалеком будущем, 2045 год, в США, город Лос-Анджелес. Жители этого мегаполиса заражаются очень странной болезнью. В очаг заражения попадает полицейский и его напарник, робот. Они должны выяснить, что стало причиной эпидемии, найти источник и ликвидировать его. Но прежде чем это случится, им придется столкнутся с серьезными испытаниями, через которые во что бы то ни стало, нужно пройти..-
Качество видео: HDRip
Контейнер: AVI
Видео кодек: XviD
Аудио кодек: AC3
Видео: MPEG-4 Visual at 1752 Кбит/сек: 720 x 400 (1.800) at 23.976 fps: 0.254 Бит/Пиксели
Аудио: AC-3 at 448 Кбит/сек: 6 каналов, 48,0 КГц
Cубтитры: отсутствуют

Media Info

Общее
Полное имя                               : E:\uTorDown\uTorrent\Films\Android.Cop.2014.L1.HDRip.1400MB_[pirat.ca].avi
Формат                                   : AVI
Формат/Информация                        : Audio Video Interleave
Размер файла                             : 1,37 Гбайт
Продолжительность                        : 1 ч. 28 м.
Общий поток                              : 2209 Кбит/сек
Программа кодирования                    : VirtualDubMod 1.5.10.2 (build 2540/release)
Библиотека кодирования                   : VirtualDubMod build 2540/release
Видео
Идентификатор                            : 0
Формат                                   : MPEG-4 Visual
Профиль формата                          : Advanced [email protected]
Параметр BVOP формата                    : 2
Параметр QPel формата                    : Нет
Параметр GMC формата                     : Без точки перехода
Параметр матрицы формата                 : Default (MPEG)
Идентификатор кодека                     : XVID
Идентификатор кодека/Подсказка           : XviD
Продолжительность                        : 1 ч. 28 м.
Битрейт                                  : 1752 Кбит/сек
Ширина                                   : 720 пикселей
Высота                                   : 400 пикселей
Соотношение сторон                       : 16:9
Частота кадров                           : 23,976 кадра/сек
Цветовое пространство                    : YUV
Субдискретизация насыщенности            : 4:2:0
Битовая глубина                          : 8 бит
Тип развёртки                            : Прогрессивная
Метод сжатия                             : С потерями
Бит/(Пиксели*Кадры)                      : 0.254
Размер потока                            : 1,08 Гбайт (79%)
Библиотека кодирования                   : XviD 1.2.1 (UTC 2008-12-04)
Аудио
Идентификатор                            : 1
Формат                                   : AC-3
Формат/Информация                        : Audio Coding 3
Расширение режима                        : CM (complete main)
Параметр Endianness формата              : Big
Идентификатор кодека                     : 2000
Продолжительность                        : 1 ч. 28 м.
Вид битрейта                             : Постоянный
Битрейт                                  : 448 Кбит/сек
Каналы                                   : 6 каналов
Расположение каналов                     : Front: L C R, Side: L R, LFE
Частота                                  : 48,0 КГц
Битовая глубина                          : 16 бит
Метод сжатия                             : С потерями
Размер потока                            : 284 Мбайт (20%)
Выравнивание                             : Разделение по промежуткам
Продолжительность промежутка             : 42  мс. (1,00 видеокадр)
Время предзагрузки промежутка            : 500  мс.

Скриншот c названием фильма

Скриншоты

Яндекс.Метрика
Рейтинг@Mail.ru