Белоснежка и охотник / Snow White And The Huntsman (2012) BDRemux 1080p от GORESEWAGE | Extended Cut

 

Создавать темы 08-Фев-2014 06:27

Название: Белоснежка и охотник
Оригинальное название: Snow White And The Huntsman
Год выпуска: 2012
Страна: США
Жанр: фэнтези, боевик, драма, приключения
Продолжительность: 02:11:33
Перевод 1: Профессиональный (дублированный)
Перевод 2: Авторский (одноголосый закадровый) В. Горчаков
Перевод 3: Авторский (одноголосый закадровый) Ю. Сербин
Перевод 4: Любительский (одноголосый закадровый) zamez
Оригинальная аудиодорожка: English
Субтитры: Russian (Forced Voronine, Full BD, Full Voronine, Full Анастасия Кисиленко (Medveditsa)), English (Full, Full i, SDH)
Студия: Roth Films, Universal Pictures
Режиссёр: Руперт Сандерс / Rupert Sanders)
В ролях: Кристен Стюарт, Крис Хемсворт, Шарлиз Терон, Сэм Клафлин, Сэм Спруэлл, Иэн МакШейн, Боб Хоскинс, Рэй Уинстон, Ник Фрост, Эдди Марсан и др.
Описание: Тьма приближается. Она прячется в лесах, спускается с гор, застилает небо. Никто не укроется от магического зеркала Королевы, живущей в неприступном замке, охраняемом бесчисленной армией. Но над Белоснежкой злые чары не властны. И тогда Королева отправляет Охотника, чтобы он принес ей сердце соперницы. Но очарованный Белоснежкой, он встает на её сторону. Грядёт великая битва. Лишь одна будет править.

Sample
Качество: BDRemux 1080p (Snow White and the Huntsman 2012 1080p Blu-Ray AVC DTS-HD MA 7.1-HDChina)
Контейнер: MKV
Видео кодек: MPEG-4 AVC Video
Аудио кодек: DTS-HD MA / AC3
Видео: MPEG-4 AVC Video / 23088 kbps / 1920x1080p / 23,976 fps / 16:9 / High Profile 4.1
Аудио 1: Russian / AC3 / 5.1 / 48 kHz / 448 kbps / 16-bit / Dub
Аудио 2: Russian / DTS-HD MA / 7.1 / 48 kHz / 4656 kbps / 24-bit (DTS Core: 5.1 / 48 kHz / 1536 kbps / 24-bit) / AVO В. Горчаков
Аудио 3: Russian / DTS-HD MA / 7.1 / 48 kHz / 4685 kbps / 24-bit (DTS Core: 5.1 / 48 kHz / 1536 kbps / 24-bit) / AVO Ю. Сербин
Аудио 4: Russian / AC3 / 5.1 / 48 kHz / 448 kbps / 16-bit / zamez
Аудио 5: English / DTS-HD MA / 7.1 / 48 kHz / 4637 kbps / 24-bit (DTS Core: 5.1 / 48 kHz / 1536 kbps / 24-bit) / Original
Аудио 6: English / AC3 / 2.0 / 48 kHz / 192 kbps / 16-bit / Commentary w/ director Rupert Sanders, visual effects supervisor Cedric Nicolas-Troyan & co-editor Neil Smith
Навигация по главам: да

Дополнительная информация

* Перевод Василия Горчакова доступен благодаря пользователям HDTracker: SavineX, Джосс, kinobbk, Jiraya87, Letyoha3, feldeger, Brown15, Role, Диммон, Xerman13, Dr. Destructo, Schmulke, vadamk, Atzki RuLon, denis_mgn_1987, nimph, MeGUI, эвоки.
* Перевод Юрия Сербина доступен благодаря пользователям форума E180.
* Перевод zamez доступен благодаря shevron & Вячеславу zamez.
* За русские субтитры №4 thx Анастасия Кисиленко (Medveditsa).

Скриншоты

MediaInfo

C:/GORESEWAGE/Snow White And The Huntsman 2012 Extended Cut BDRemux 1080p GORESEWAGE.mkv
General
Unique ID : 248744489241565883757804958483240995065 (0xBB22722F3ABC7857A68A8F059E1848F9)
Complete name : C:/GORESEWAGE/Snow White And The Huntsman 2012 Extended Cut BDRemux 1080p GORESEWAGE.mkv
Format : Matroska
Format version : Version 4 / Version 2
File size : 35.0 GiB
Duration : 2h 11mn
Overall bit rate mode : Variable
Overall bit rate : 38.0 Mbps
Movie name : Snow White And The Huntsman 2012 Extended Cut BDRemux 1080p GORESEWAGE
Encoded date : UTC 2014-02-07 23:27:01
Writing application : mkvmerge v6.1.0 ('Old Devil') built on Mar 2 2013 14:32:37
Writing library : libebml v1.3.0 + libmatroska v1.4.0
Attachment : Yes
Video #1
ID : 1
Format : AVC
Format/Info : Advanced Video Codec
Format profile : [email protected]
Format settings, CABAC : Yes
Format settings, ReFrames : 4 frames
Codec ID : V_MPEG4/ISO/AVC
Duration : 2h 11mn
Bit rate mode : Variable
Maximum bit rate : 35.0 Mbps
Width : 1 920 pixels
Height : 1 080 pixels
Display aspect ratio : 16:9
Frame rate mode : Constant
Frame rate : 23.976 fps
Color space : YUV
Chroma subsampling : 4:2:0
Bit depth : 8 bits
Scan type : Progressive
Title : Snow White And The Huntsman 2012 Extended Cut BDRemux 1080p GORESEWAGE
Language : English
Default : Yes
Forced : No
Audio #2
ID : 2
Format : AC-3
Format/Info : Audio Coding 3
Mode extension : CM (complete main)
Format settings, Endianness : Big
Codec ID : A_AC3
Duration : 2h 11mn
Bit rate mode : Constant
Bit rate : 448 Kbps
Channel count : 6 channels
Channel positions : Front: L C R, Side: L R, LFE
Sampling rate : 48.0 KHz
Bit depth : 16 bits
Compression mode : Lossy
Stream size : 422 MiB (1%)
Title : Dub
Language : Russian
Default : Yes
Forced : No
Audio #3
ID : 3
Format : DTS
Format/Info : Digital Theater Systems
Format profile : MA / Core
Mode : 16
Format settings, Endianness : Big
Codec ID : A_DTS
Duration : 2h 11mn
Bit rate mode : Variable
Bit rate : Unknown / 1 509 Kbps
Channel count : 8 channels / 6 channels
Channel positions : Front: L C R, Side: L R, Back: L R, LFE / Front: L C R, Side: L R, LFE
Sampling rate : 48.0 KHz
Bit depth : 24 bits
Compression mode : Lossless / Lossy
Title : AVO В. Горчаков
Language : Russian
Default : No
Forced : No
Audio #4
ID : 4
Format : DTS
Format/Info : Digital Theater Systems
Format profile : MA / Core
Mode : 16
Format settings, Endianness : Big
Codec ID : A_DTS
Duration : 2h 11mn
Bit rate mode : Variable
Bit rate : Unknown / 1 509 Kbps
Channel count : 8 channels / 6 channels
Channel positions : Front: L C R, Side: L R, Back: L R, LFE / Front: L C R, Side: L R, LFE
Sampling rate : 48.0 KHz
Bit depth : 24 bits
Compression mode : Lossless / Lossy
Title : AVO Ю. Сербин
Language : Russian
Default : No
Forced : No
Audio #5
ID : 5
Format : AC-3
Format/Info : Audio Coding 3
Mode extension : CM (complete main)
Format settings, Endianness : Big
Codec ID : A_AC3
Duration : 2h 11mn
Bit rate mode : Constant
Bit rate : 448 Kbps
Channel count : 6 channels
Channel positions : Front: L C R, Side: L R, LFE
Sampling rate : 48.0 KHz
Bit depth : 16 bits
Compression mode : Lossy
Stream size : 422 MiB (1%)
Title : VO zamez
Language : Russian
Default : No
Forced : No
Audio #6
ID : 6
Format : DTS
Format/Info : Digital Theater Systems
Format profile : MA / Core
Mode : 16
Format settings, Endianness : Big
Codec ID : A_DTS
Duration : 2h 11mn
Bit rate mode : Variable
Bit rate : Unknown / 1 509 Kbps
Channel count : 8 channels / 6 channels
Channel positions : Front: L C R, Side: L R, Back: L R, LFE / Front: L C R, Side: L R, LFE
Sampling rate : 48.0 KHz
Bit depth : 24 bits
Compression mode : Lossless / Lossy
Title : Original
Language : English
Default : No
Forced : No
Audio #7
ID : 7
Format : AC-3
Format/Info : Audio Coding 3
Format profile : Dolby Digital
Mode extension : CM (complete main)
Format settings, Endianness : Big
Codec ID : A_AC3
Duration : 2h 11mn
Bit rate mode : Constant
Bit rate : 192 Kbps
Channel count : 2 channels
Channel positions : Front: L R
Sampling rate : 48.0 KHz
Bit depth : 16 bits
Compression mode : Lossy
Stream size : 181 MiB (1%)
Title : Commentary w/ director Rupert Sanders, visual effects supervisor Cedric Nicolas-Troyan & co-editor Neil Smith
Language : English
Default : No
Forced : No
Text #8
ID : 8
Format : UTF-8
Codec ID : S_TEXT/UTF8
Codec ID/Info : UTF-8 Plain Text
Title : Forced Voronine
Language : Russian
Default : Yes
Forced : No
Text #9
ID : 9
Format : UTF-8
Codec ID : S_TEXT/UTF8
Codec ID/Info : UTF-8 Plain Text
Title : Full BD
Language : Russian
Default : No
Forced : No
Text #10
ID : 10
Format : UTF-8
Codec ID : S_TEXT/UTF8
Codec ID/Info : UTF-8 Plain Text
Title : Full Voronine
Language : Russian
Default : No
Forced : No
Text #11
ID : 11
Format : UTF-8
Codec ID : S_TEXT/UTF8
Codec ID/Info : UTF-8 Plain Text
Title : Full Анастасия Кисиленко (Medveditsa)
Language : Russian
Default : No
Forced : No
Text #12
ID : 12
Format : UTF-8
Codec ID : S_TEXT/UTF8
Codec ID/Info : UTF-8 Plain Text
Title : Full
Language : English
Default : No
Forced : No
Text #13
ID : 13
Format : UTF-8
Codec ID : S_TEXT/UTF8
Codec ID/Info : UTF-8 Plain Text
Title : Full i
Language : English
Default : No
Forced : No
Text #14
ID : 14
Format : UTF-8
Codec ID : S_TEXT/UTF8
Codec ID/Info : UTF-8 Plain Text
Title : SDH
Language : English
Default : No
Forced : No
Menu
00:00:00.000 : en:Chapter 1
00:05:05.055 : en:Chapter 2
00:10:26.793 : en:Chapter 3
00:19:48.854 : en:Chapter 4
00:27:46.456 : en:Chapter 5
00:32:40.458 : en:Chapter 6
00:38:04.490 : en:Chapter 7
00:44:02.098 : en:Chapter 8
00:51:08.649 : en:Chapter 9
00:58:17.869 : en:Chapter 10
01:02:08.558 : en:Chapter 11
01:08:57.967 : en:Chapter 12
01:13:36.537 : en:Chapter 13
01:16:59.073 : en:Chapter 14
01:26:57.003 : en:Chapter 15
01:36:30.993 : en:Chapter 16
01:43:37.795 : en:Chapter 17
01:49:51.460 : en:Chapter 18
01:53:44.734 : en:Chapter 19
02:01:50.094 : en:Chapter 20
Яндекс.Метрика
Рейтинг@Mail.ru