Проклятие монахини / The Nun (Корин Харди) [2018, ужасы, триллер, детектив, BDRip 720p от селезень | Лицензия]

 

Создавать темы 06-Дек-2018 18:31

Проклятие монахини / The Nun
Информация о фильме- Название: Проклятие монахини
Оригинальное название: The Nun
Год выхода: 2018
Жанр: Ужасы, триллер, детектив
Режиссер: Корин Харди
В ролях: Демиан Бишир, Таисса Фармига, Йонас Блоке, Бонни Ааронс, Ингрид Бису, Шарлотта Хоуп, Сандра Телес, Аугуст Матуро, Джек Фальк, Линетт Газа--О фильме: Когда в уединенном монастыре в Румынии совершает самоубийство молодая монахиня, расследовать происшествие Ватикан отправляет священника с туманным прошлым и послушницу на пороге невозвратных обетов. Рискуя не только жизнями, но и верой, и даже своими душами, они сталкиваются со злобной силой, принявшей облик демонической монахини, а монастырь становится полем ужасающей битвы между живыми и проклятыми.-Страна: США
Студия: Atomic Monster,New Line Cinema,The Safran Company
Продолжительность: 01:36:34
Перевод: Дублированный | Лицензия-Качество: BDRip 720p
Видео: MPEG-4 AVC, 1280x534, 4859 Kbit/s, 23.976 fps
Звук:
Аудио #01: 48 kHz, AC3, 5.1, 640 Kbps | Дублированный | RUS |
Аудио #02: 48 kHz, AC3, 2.0, 192 Kbps | Дублированный | UKR |
Аудио #03: 48 kHz, AC3, 5.1, 640 Kbps | Оригинал | ENG |
Субтитры: Русские (Forced, full), украинские (Forced), английские (Full, SDH)-

Скриншоты

--
-

MI

-General
Unique ID : 190017470906802202193536393599446403488 (0x8EF408A1B7B1C2BCD6664050D16FC9A0)
Complete name : D:Video111The.Nun.2018.Lic.BDRip.720p.selezen.mkv
Format : Matroska
Format version : Version 4
File size : 3.88 GiB
Duration : 1 h 36 min
Overall bit rate : 5 756 kb/s
Movie name : The Nun 2018 from селезень
Encoded date : UTC 2018-12-06 10:14:49
Writing application : mkvmerge v29.0.0 ('Like It Or Not') 64-bit
Writing library : libebml v1.3.6 + libmatroska v1.4.9
Video
ID : 1
Format : AVC
Format/Info : Advanced Video Codec
Format profile : [email protected]
Format settings : CABAC / 12 Ref Frames
Format settings, CABAC : Yes
Format settings, ReFrames : 12 frames
Codec ID : V_MPEG4/ISO/AVC
Duration : 1 h 36 min
Bit rate : 4 500 kb/s
Width : 1 280 pixels
Height : 534 pixels
Display aspect ratio : 2.40:1
Frame rate mode : Constant
Frame rate : 23.976 (24000/1001) FPS
Color space : YUV
Chroma subsampling : 4:2:0
Bit depth : 8 bits
Scan type : Progressive
Bits/(Pixel*Frame) : 0.275
Stream size : 3.02 GiB (78%)
Title : selezen
Writing library : x264 core 148 r2705kMod 3f5ed56
Encoding settings : cabac=1 / ref=12 / deblock=1:-2:-2 / analyse=0x3:0x133 / me=umh / subme=11 / psy=1 / fade_compensate=0.00 / psy_rd=1.05:0.07 / mixed_ref=1 / me_range=32 / chroma_me=1 / trellis=2 / 8x8dct=1 / cqm=0 / deadzone=21,11 / fast_pskip=0 / chroma_qp_offset=-3 / threads=12 / lookahead_threads=2 / sliced_threads=0 / nr=0 / decimate=0 / interlaced=0 / bluray_compat=0 / constrained_intra=0 / fgo=0 / bframes=8 / b_pyramid=2 / b_adapt=2 / b_bias=0 / direct=3 / weightb=1 / open_gop=0 / weightp=2 / keyint=240 / keyint_min=23 / scenecut=40 / intra_refresh=0 / rc_lookahead=50 / rc=2pass / mbtree=0 / bitrate=4500 / ratetol=1.0 / qcomp=0.60 / qpmin=0 / qpmax=51 / qpstep=4 / cplxblur=20.0 / qblur=0.5 / vbv_maxrate=50000 / vbv_bufsize=62500 / nal_hrd=none / filler=0 / ip_ratio=1.40 / pb_ratio=1.30 / aq=3:0.80
Language : English
Default : Yes
Forced : No
Audio #1
ID : 2
Format : AC-3
Format/Info : Audio Coding 3
Commercial name : Dolby Digital
Codec ID : A_AC3
Duration : 1 h 36 min
Bit rate mode : Constant
Bit rate : 640 kb/s
Channel(s) : 6 channels
Channel layout : L R C LFE Ls Rs
Sampling rate : 48.0 kHz
Frame rate : 31.250 FPS (1536 SPF)
Bit depth : 16 bits
Compression mode : Lossy
Stream size : 442 MiB (11%)
Title : Dub [License]
Language : Russian
Service kind : Complete Main
Default : Yes
Forced : Yes
Audio #2
ID : 3
Format : AC-3
Format/Info : Audio Coding 3
Commercial name : Dolby Digital
Codec ID : A_AC3
Duration : 1 h 36 min
Bit rate mode : Constant
Bit rate : 192 kb/s
Channel(s) : 2 channels
Channel layout : L R
Sampling rate : 48.0 kHz
Frame rate : 31.250 FPS (1536 SPF)
Bit depth : 16 bits
Compression mode : Lossy
Stream size : 133 MiB (3%)
Title : Dub
Language : Ukrainian
Service kind : Complete Main
Default : No
Forced : No
Audio #3
ID : 4
Format : AC-3
Format/Info : Audio Coding 3
Commercial name : Dolby Digital
Codec ID : A_AC3
Duration : 1 h 36 min
Bit rate mode : Constant
Bit rate : 448 kb/s
Channel(s) : 6 channels
Channel layout : L R C LFE Ls Rs
Sampling rate : 48.0 kHz
Frame rate : 31.250 FPS (1536 SPF)
Bit depth : 16 bits
Compression mode : Lossy
Stream size : 309 MiB (8%)
Title : Original
Language : English
Service kind : Complete Main
Default : No
Forced : No
Text #1
ID : 5
Format : UTF-8
Codec ID : S_TEXT/UTF8
Codec ID/Info : UTF-8 Plain Text
Duration : 1 h 29 min
Bit rate : 0 b/s
Count of elements : 19
Stream size : 632 Bytes (0%)
Title : Forced
Language : Russian
Default : Yes
Forced : Yes
Text #2
ID : 6
Format : UTF-8
Codec ID : S_TEXT/UTF8
Codec ID/Info : UTF-8 Plain Text
Duration : 1 h 35 min
Bit rate : 51 b/s
Count of elements : 644
Stream size : 35.7 KiB (0%)
Title : Full
Language : Russian
Default : No
Forced : No
Text #3
ID : 7
Format : UTF-8
Codec ID : S_TEXT/UTF8
Codec ID/Info : UTF-8 Plain Text
Duration : 1 h 35 min
Bit rate : 0 b/s
Count of elements : 19
Stream size : 672 Bytes (0%)
Title : Forced
Language : Ukrainian
Default : No
Forced : No
Text #4
ID : 8
Format : UTF-8
Codec ID : S_TEXT/UTF8
Codec ID/Info : UTF-8 Plain Text
Duration : 1 h 30 min
Bit rate : 30 b/s
Count of elements : 639
Stream size : 20.4 KiB (0%)
Title : Full
Language : English
Default : No
Forced : No
Text #5
ID : 9
Format : UTF-8
Codec ID : S_TEXT/UTF8
Codec ID/Info : UTF-8 Plain Text
Duration : 1 h 35 min
Bit rate : 38 b/s
Count of elements : 942
Stream size : 27.1 KiB (0%)
Title : SDH
Language : English
Default : No
Forced : No
Menu
00:00:00.000 : en:00:00:00.000
00:08:42.772 : en:00:08:42.772
00:17:55.074 : en:00:17:55.074
00:29:17.506 : en:00:29:17.506
00:38:05.033 : en:00:38:05.033
00:48:49.802 : en:00:48:49.802
00:58:49.192 : en:00:58:49.192
01:09:16.944 : en:01:09:16.944
01:18:14.565 : en:01:18:14.565
01:24:18.637 : en:01:24:18.637
01:32:30.295 : en:01:32:30.295
--Релиз от: -
Рейтинг@Mail.ru